> 许志安<On and On 入行25周年>香港红馆演唱会2011【42.4G】1080P
歌 手 : 许志安
主音唯一码 : lgych-00012
视频大小 : 42.4G主音网微信 : zhuyinwang01
创建时间 : 2018-09-10主音网QQ客服 :不在接受qq咨询,有事找微信。说明来意。
视频目录 : 中国香港演唱会
主音网邮箱 :bimuyu#zhuyin.com(请把#改成@)
主音唯一码
lgych-00012
文件大小
42.4G
百度网盘下载
提取码
xvuy
文件解压密码
许志安<On and On 入行25周年>香港红馆演唱会2011【42.4G】1080P 视频截图










许志安<On and On 入行25周年>香港红馆演唱会2011【42.4G】1080P 视频剧情截图
许志安<On and On 入行25周年>香港红馆演唱会2011【42.4G】1080P 演唱会曲目介绍

演唱会曲目介绍

01. 恋爱片段
02. 将冰山劈开
03. 迷糊、情欲、对象
04. 彻夜缠绵
05. 向全世界说爱你
06. 喜欢你是你
07. 男人最痛
08. 我的天 我的歌
09. 一家一减你
10. 心血
11. 金钟罩
12. 反正经
13. 热情万钧
14. 不倦的蝴蝶
15. 世纪末烟花
16. 爱你
17. 教我如何不爱他 (许志安/叶德娴)
18. 似水流年
19. 昨迟人
20. 一直相爱
21. 唯独你是不可取替
22. 非一般爱火
23. 火热动感lalala
24. 万水千山纵横
25. Big Four (许志安/张卫健/苏永康/梁汉文)
26. 让爱
27. 烂泥
28. 心灵相通
29. 半天假
30. 一步一生
31. 唯独你是不可取替 (2nd Encore)
32. Making Of On and ON
主音唯一码
lgych-00012
文件大小
42.4G
百度网盘下载
提取码
xvuy
文件解压密码
许志安<On and On 入行25周年>香港红馆演唱会2011【42.4G】1080P 演唱会视频参数信息

演唱会参数信息

DISC INFO:

Disc Title:     许志安香港红馆演唱会2011【42.4G】1080P蓝光原盘
Disc Size:      45,596,907,075 bytes
Protection:     AACS
BD-Java:        No
BDInfo:         0.5.8

PLAYLIST REPORT:

Name:                   00001.MPLS
Length:                 2:46:28.979 (h:m:s.ms)
Size:                   43,372,062,720 bytes
Total Bitrate:          34.74 Mbps

VIDEO:

Codec                   Bitrate             Description     
-----                   -------             -----------     
MPEG-4 AVC Video        20844 kbps          1080i / 29.970 fps / 16:9 / High Profile 4.1

AUDIO:

Codec                           Language        Bitrate         Description     
-----                           --------        -------         -----------     
LPCM Audio                      Chinese         4608 kbps       5.1 / 48 kHz / 4608 kbps / 16-bit
DTS-HD Master Audio             Chinese         6562 kbps       5.1 / 96 kHz / 6562 kbps / 24-bit (DTS Core: 6.1 / 48 kHz / 1509 kbps / 24-bit)
Dolby Digital Audio             Chinese         384 kbps        2.0 / 48 kHz / 384 kbps
Dolby Digital Audio             Chinese         384 kbps        2.0 / 48 kHz / 384 kbps

SUBTITLES:

Codec                           Language        Bitrate         Description     
-----                           --------        -------         -----------     
Presentation Graphics           Chinese         20.156 kbps                     
Presentation Graphics           Chinese         17.961 kbps                     

FILES:

Name            Time In         Length          Size            Total Bitrate   
----            -------         ------          ----            -------------   
00003.M2TS      0:00:00.000     0:51:23.547     13,357,228,032  34,654         
00004.M2TS      0:51:23.547     0:51:48.772     13,540,104,192  34,844         
00005.M2TS      1:43:12.319     1:03:16.659     16,474,730,496  34,714         

为您推荐 许志安 相关的演唱会视频
主音唯一码
lgych-00012
文件大小
42.4G
百度网盘下载
提取码
xvuy
文件解压密码
最新天气预报