> 万芳<你所不知道的那些夜晚>亚洲巡回演唱会台北站2010【41.5G】1
歌 手 : 万芳
主音唯一码 : lgych-00014
视频大小 : 41.5G主音网微信 : zhuyinwang01
创建时间 : 2018-09-10主音网QQ客服 :不在接受qq咨询,有事找微信。说明来意。
视频目录 : 中国台湾演唱会
主音网邮箱 :bimuyu#zhuyin.com(请把#改成@)
主音唯一码
lgych-00014
文件大小
41.5G
百度网盘下载
提取码
g8kp
文件解压密码
万芳<你所不知道的那些夜晚>亚洲巡回演唱会台北站2010【41.5G】1 视频截图












万芳<你所不知道的那些夜晚>亚洲巡回演唱会台北站2010【41.5G】1 视频剧情截图
万芳<你所不知道的那些夜晚>亚洲巡回演唱会台北站2010【41.5G】1 演唱会曲目介绍

演唱会曲目介绍

1. 《万芳_半袖》
2. 《万芳_温哥华悲伤一号》
3. 《万芳_北极之光》
4. 《万芳_Fly Away》
5. 《万芳_走在雨中》
6. 《万芳_爱禁不起考验》
7. 《万芳_猜心》
8. 《万芳_香蕉船》
9. 《万芳_怀念》
10. 《万芳_谁在眨眼睛+风》
11. 《万芳_王昭君》
12. 《万芳_急切却又只能等待》
13. 《万芳_断线》
14. 《万芳_我们不要伤心了》
15. 《万芳_孤单》
16. 《万芳.伍佰_爱情限时批》
17. 《万芳.伍佰_不确定》
18. 《万芳_时间仍然继续在走+碧海情天》
19. 《万芳_恋你+Unchained Melody+爱》
20. 《万芳_割爱+就值得了爱+孩子气+拜》
21. 《万芳_从前》
22. 《万芳_那夜》
23. 《万芳_相爱的运气》
24. 《万芳_慢火车》
25. 《万芳_新不了情》
26. 《万芳_你我》
27. 《万芳_试着了解》
28. 《万芳_自己照顾自己》
主音唯一码
lgych-00014
文件大小
41.5G
百度网盘下载
提取码
g8kp
文件解压密码
万芳<你所不知道的那些夜晚>亚洲巡回演唱会台北站2010【41.5G】1 演唱会视频参数信息

演唱会参数信息

DISC INFO:

Disc Title:    万芳<你所不知道的那些夜晚>亚洲巡回演唱会台北站2010【41G】1080P蓝光原盘
Disc Size:      44,596,047,889 bytes
Protection:     AACS
BD-Java:        No
BDInfo:         0.5.8

PLAYLIST REPORT:

Name:                   00002.MPLS
Length:                 3:05:24.246 (h:m:s.ms)
Size:                   44,100,286,464 bytes
Total Bitrate:          31.71 Mbps

VIDEO:

Codec                   Bitrate             Description     
-----                   -------             -----------     
MPEG-4 AVC Video        25019 kbps          1080i / 29.970 fps / 16:9 / High Profile 4.1

AUDIO:

Codec                           Language        Bitrate         Description     
-----                           --------        -------         -----------     
LPCM Audio                      Chinese         1536 kbps       2.0 / 48 kHz / 1536 kbps / 16-bit
Dolby Digital Audio             Chinese   nbsp;      640 kbps        5.1 / 48 kHz / 640 kbps
DTS-HD Master Audio             Chinese         2563 kbps       5.1 / 48 kHz / 2563 kbps / 16-bit (DTS Core: 5.1 / 48 kHz / 1509 kbps / 16-bit)

SUBTITLES:

Codec                           Language        Bitrate         Description     
-----                           --------        -------         -----------     
Presentation Graphics           Chinese         13.685 kbps                     
Presentation Graphics           Chinese         13.394 kbps                     

FILES:

Name            Time In         Length          Size            Total Bitrate   
----            -------         ------          ----            -------------   
00004.M2TS      0:00:00.000     1:35:43.404     22,736,627,712  31,670         
00005.M2TS      1:35:43.404     1:29:40.241     21,362,454,528  31,764         
00001.M2TS      3:05:23.645     0:00:00.600     1,204,224       16,040         

为您推荐 万芳 相关的演唱会视频
主音唯一码
lgych-00014
文件大小
41.5G
百度网盘下载
提取码
g8kp
文件解压密码
最新天气预报