> Mr.乐队<Mr Everyone Concert 01>震撼红馆演唱会2010【43.5G】10
歌 手 : Mr.乐队,布志纶,谭健文,谭杰明,黎泽恩,杜志烜
主音唯一码 : lgych-00015
视频大小 : 43.5G主音网微信 : zhuyinwang01
创建时间 : 2018-09-10主音网QQ客服 :不在接受qq咨询,有事找微信。说明来意。
视频目录 : 中国香港演唱会
主音网邮箱 :bimuyu#zhuyin.com(请把#改成@)
主音唯一码
lgych-00015
文件大小
43.5G
百度网盘下载
提取码
9sy5
文件解压密码
Mr.乐队<Mr Everyone Concert 01>震撼红馆演唱会2010【43.5G】10 视频截图
















Mr.乐队<Mr Everyone Concert 01>震撼红馆演唱会2010【43.5G】10 视频剧情截图
Mr.乐队<Mr Everyone Concert 01>震撼红馆演唱会2010【43.5G】10 演唱会曲目介绍

演唱会曲目介绍

01. 黑色狂迷
02. 摇摆
03. 无谓再假
04. Mister
05. 假使
06. 遇到了
07. 背影
08. 等不了
09. 未曾后悔
10. 战祸
11. 寻找一千遍
12. 大热 + 演唱会Medley
13. High and Dry
14. Mr. Tam Medley (Mr. + 谭咏麟)
i) Mr. Tam
ii) 暴风女神
iii) 世界停顿
iv) 剌客
v) 你知我知
vi) Mr. Tam
15. Medley : (Mr. + Joey Tang + 雷有辉)
i) 红色跑车
ii) Crystal
iii) 每一句说话
16. 未卜先知 (Mr. + Joey Tang)
17. Everyone
18. 想太多
19. 森林
20. 如果我是陈奕迅 + 冲口而出
21. 大懒堂 (Mr. + LMF)
22. 揸紧中指 (Mr. + LMF)
23. 感动
24. 最重要
25. 想太多 (Encore Version)
26. Behind The Scene
主音唯一码
lgych-00015
文件大小
43.5G
百度网盘下载
提取码
9sy5
文件解压密码
Mr.乐队<Mr Everyone Concert 01>震撼红馆演唱会2010【43.5G】10 演唱会视频参数信息

演唱会参数信息

DISC INFO:

Disc Title:     Mr.乐队第一次震撼红馆演唱会2010【43.5G】1080P蓝光原盘
Disc Size:      46,732,961,120 bytes
Protection:     AACS
BD-Java:        No
BDInfo:         0.5.8

PLAYLIST REPORT:

Name:                   00001.MPLS
Length:                 2:38:10.280 (h:m:s.ms)
Size:                   44,336,314,368 bytes
Total Bitrate:          37.37 Mbps

VIDEO:

Codec                   Bitrate             Description     
-----                   -------             -----------     
MPEG-4 AVC Video        22880 kbps          1080i / 29.970 fps / 16:9 / High Profile 4.1

AUDIO:

Codec                           Language        Bitrate         Description     
-----                           --------        -------         -----------     
LPCM Audio                      Chinese         4608 kbps       5.1 / 48 kHz / 4608 kbps / 16-bit
DTS-HD Master Audio             Chinese         6958 kbps       5.1 / 96 kHz / 6958 kbps / 24-bit (DTS Core: 6.1 / 48 kHz / 1509 kbps / 24-bit)
Dolby Digital EX Audio          Chinese         640 kbps        5.1-EX / 48 kHz / 640 kbps / DN -4dB
Dolby Digital Audio             Chinese         192 kbps        2.0 / 48 kHz / 192 kbps / DN -4dB

SUBTITLES:

Codec                           Language        Bitrate         Description     
-----                           --------        -------         -----------     
Presentation Graphics           Chinese         22.981 kbps                     
Presentation Graphics           Chinese         20.770 kbps                     

FILES:

Name            Time In         Length          Size            Total Bitrate   
----            -------         ------          ----            -------------   
00003.M2TS      0:00:00.000     1:45:03.296     29,574,666,240  37,535         
00004.M2TS      1:45:03.296     0:53:02.179     14,757,359,616  37,100         
00005.M2TS      2:38:05.475     0:00:04.804     4,288,512       7,140           
为您推荐 Mr.乐队,布志纶,谭健文,谭杰明,黎泽恩,杜志烜 相关的演唱会视频
主音唯一码
lgych-00015
文件大小
43.5G
百度网盘下载
提取码
9sy5
文件解压密码
最新天气预报