> 温拿<The Wynners Live Concert>38大跃进香港演唱会2011【44G】1
歌 手 : 温拿乐队,谭咏麟,钟镇涛,彭健新,叶智强,陈友,李克勤
主音唯一码 : lgych-00018
视频大小 : 44.3G主音网微信 : zhuyinwang01
创建时间 : 2018-09-10主音网QQ客服 :2305540263
视频目录 : 中国香港演唱会
主音网邮箱 :bimuyu#zhuyin.com(请把#改成@)
主音唯一码
lgych-00018
文件大小
44.3G
百度网盘下载
提取码
s6ya
文件解压密码
温拿<The Wynners Live Concert>38大跃进香港演唱会2011【44G】1 视频截图












温拿<The Wynners Live Concert>38大跃进香港演唱会2011【44G】1 视频剧情截图
温拿<The Wynners Live Concert>38大跃进香港演唱会2011【44G】1 演唱会曲目介绍

演唱会曲目介绍

01. 喜气洋洋  
02. L-O-V-E Love  
03. 财神到 (国)  
04. 唱一首好歌  
05. 至少还有你 (国)  
06. 明年今日  
07. 有多少爱可以重来 (国)  
08. The Wynners Love Story (真情对话版)  
i. Can't Help Falling in Love  
ii. 爱情小插曲  
iii. 等  
iv. 沉默是金  
v. 爱人女神  
vi. Daddy's Home  
vii. Silence Is Golden  
viii. 情变  
ix. 人生满希望  
09. 每当变幻时  
10. 曲中情  
11. I Go To Pieces (谭咏麟)  
12. 不可能逃避 (钟镇涛)  
13. 让一切随风 (钟镇涛)  
14. I'll Never Dance Again (谭咏麟)  
15. My Girl (陈友)  
16. In the Midnight Hour (叶智强)  
17. I Can Dream About You (彭健新)  
18. 恭喜 恭喜 (国) (钟懿)  
19. Imagine (钟镇涛 + 钟懿)  
20. We Are The World (钟镇涛 + 钟懿)  
21. 三字经 (钟懿)  
22. 没那么简单 (国)  
23. 一个永远不好的伤口 (谭咏麟)  
24. 凌晨一吻 (谭咏麟)  
25. 阳光大减价 (彭健新)  
26. Soul Sacrifice  
27. Smoke On The Water  
28. Sunshine Of Your Love  
29. 爱到你发狂  
30. 玩吓啦 (温拿 + 李克勤)  
31. Sha La La La La (温拿 + 李克勤)  
32. 陪着她 (温拿 + 李克勤)  
33. 自然关系  
34. 乐坛风云Medley  
i. 乐坛风云  
ii. 阳光空气  
iii. 红色跑车  
iv. 石头记  
v. 岁月无声  
vi. 下雨天  
vii. 乐坛风云  
35. 千载不变  
36. 捕风汉子 (温拿 + Mr. + 草蜢)  
37. 朋友 (温拿 + Mr. + 草蜢)
主音唯一码
lgych-00018
文件大小
44.3G
百度网盘下载
提取码
s6ya
文件解压密码
温拿<The Wynners Live Concert>38大跃进香港演唱会2011【44G】1 演唱会视频参数信息

演唱会参数信息

DISC INFO:

Disc Title:     温拿38大跃进香港演唱会2011【44.3G】1080P蓝光原盘
Disc Size:      47,661,293,985 bytes
Protection:     AACS
BD-Java:        No
BDInfo:         0.5.8

PLAYLIST REPORT:

Name:                   00001.MPLS
Length:                 3:00:30.653 (h:m:s.ms)
Size:                   43,437,643,776 bytes
Total Bitrate:          32.08 Mbps

VIDEO:

Codec                   Bitrate             Description     
-----                   -------             -----------     
MPEG-4 AVC Video        16999 kbps          1080i / 29.970 fps / 16:9 / High Profile 4.1

AUDIO:

Codec                           Language        Bitrate         Description     
-----                           --------        -------         -----------     
LPCM Audio                      Chinese         4608 kbps       5.1 / 48 kHz / 4608 kbps / 16-bit
DTS-HD Master Audio             Chinese         7770 kbps       5.1 / 96 kHz / 7770 kbps / 24-bit (DTS Core: 6.1 / 48 kHz / 1509 kbps / 24-bit)
Dolby Digital EX Audio          Chinese         640 kbps        5.1-EX / 48 kHz / 640 kbps
Dolby Digital Audio             Chinese         192 kbps        2.0 / 48 kHz / 192 kbps

SUBTITLES:

Codec                           Language        Bitrate         Description     
-----                           --------        -------         -----------     
Presentation Graphics           Chinese         24.360 kbps                     
Presentation Graphics           Chinese         21.932 kbps                     

FILES:

Name            Time In         Length          Size            Total Bitrate   
----            -------         ------          ----            -------------   
00003.M2TS      0:00:00.000     1:02:40.156     15,038,005,248  31,994         
00004.M2TS      1:02:40.156     1:07:13.529     16,099,270,656  31,931         
00005.M2TS      2:09:53.685     0:50:36.967     12,300,367,872  32,402         

为您推荐 温拿乐队,谭咏麟,钟镇涛,彭健新,叶智强,陈友,李克勤 相关的演唱会视频
主音唯一码
lgych-00018
文件大小
44.3G
百度网盘下载
提取码
s6ya
文件解压密码
最新天气预报