> 杨千嬅世界巡回演唱会香港站2010【42.7G】1080P蓝光原盘.港版
歌 手 : 杨千嬅
主音唯一码 : lgych-00019
视频大小 : 42.7G主音网微信 : zhuyinwang01
创建时间 : 2018-09-10主音网QQ客服 :不在接受qq咨询,有事找微信。说明来意。
视频目录 : 中国香港演唱会
主音网邮箱 :bimuyu#zhuyin.com(请把#改成@)
主音唯一码
lgych-00019
文件大小
42.7G
百度网盘下载
提取码
34hk
文件解压密码
杨千嬅世界巡回演唱会香港站2010【42.7G】1080P蓝光原盘.港版 视频截图














杨千嬅世界巡回演唱会香港站2010【42.7G】1080P蓝光原盘.港版 视频剧情截图
杨千嬅世界巡回演唱会香港站2010【42.7G】1080P蓝光原盘.港版 演唱会曲目介绍

演唱会曲目介绍

01. Opening
02. Ready or Not + 妖女
03. 烈女
04. 狼来了
05. 有发生过
06. 爱人
07. 数你
08. 小城大事
09. 捞月亮的人
10. 菊花台
11. Boy Band VS Girl Band
12. 杨千嬅
13. 抬起我的头来
14. 花样+年华
15. 热血青年
16. 如果东京不快乐
17. 自由行
18. 再见二丁目
19. Nobody
20. 三分钟恋爱热度
21. 给我爱过的男孩们
22. 斗零争
23. 封面女郎
24. 幸福摩天轮
25. 真命天子
26. 飞女正传 (with 丁子高)
27. 可惜我是水瓶座
28. 假如让我说下去
29. 冰点
30. 饮酒思源
31. 少女的祈祷
32. 野孩子
主音唯一码
lgych-00019
文件大小
42.7G
百度网盘下载
提取码
34hk
文件解压密码
杨千嬅世界巡回演唱会香港站2010【42.7G】1080P蓝光原盘.港版 演唱会视频参数信息

演唱会参数信息

DISC INFO:

Disc Title:     杨千嬅世界巡回演唱会香港站2010【42.7G】1080P蓝光原盘
Disc Size:      45,870,510,325 bytes
Protection:     AACS
BD-Java:        No
BDInfo:         0.5.8

PLAYLIST REPORT:

Name:                   00001.MPLS
Length:                 2:21:20.805 (h:m:s.ms)
Size:                   41,830,004,736 bytes
Total Bitrate:          39.46 Mbps

VIDEO:

Codec                   Bitrate             Description     
-----                   -------             -----------     
MPEG-4 AVC Video        24976 kbps          1080i / 29.970 fps / 16:9 / High Profile 4.1

AUDIO:

Codec                           Language        Bitrate         Description     
-----                           --------        -------         -----------     
LPCM Audio                      Chinese         4608 kbps       5.1 / 48 kHz / 4608 kbps / 16-bit
DTS-HD Master Audio             Chinese         6848 kbps       5.1 / 96 kHz / 6848 kbps / 24-bit (DTS Core: 6.1 / 48 kHz / 1509 kbps / 24-bit)
Dolby Digital Audio             Chinese         640 kbps        5.1 / 48 kHz / 640 kbps
Dolby Digital Audio             Chinese         192 kbps        2.0 / 48 kHz / 192 kbps

SUBTITLES:

Codec                           Language        Bitrate         Description     
-----                           --------        -------         -----------     
Presentation Graphics           Chinese         27.682 kbps                     
Presentation Graphics           Chinese         24.993 kbps                     

FILES:

Name            Time In         Length          Size            Total Bitrate   
----            -------         ------          ----            -------------   
00003.M2TS      0:00:00.000     0:45:54.752     13,531,975,680  39,298         
00004.M2TS      0:45:54.752     0:47:58.876     14,298,200,064  39,733         
00005.M2TS      1:33:53.628     0:47:27.177     13,999,828,992  39,337        

为您推荐 杨千嬅 相关的演唱会视频
主音唯一码
lgych-00019
文件大小
42.7G
百度网盘下载
提取码
34hk
文件解压密码
最新天气预报