> 杨千嬅<Miriam Yeung Minor Classics Live>香港演唱会2011【42.3
歌 手 : 杨千嬅
主音唯一码 : lgych-00020
视频大小 : 42.3G主音网微信 : zhuyinwang01
创建时间 : 2018-09-10主音网QQ客服 :2305540263
视频目录 : 中国香港演唱会
主音网邮箱 :bimuyu#zhuyin.com(请把#改成@)
主音唯一码
lgych-00020
文件大小
42.3G
百度网盘下载
提取码
rduq
文件解压密码
杨千嬅<Miriam Yeung Minor Classics Live>香港演唱会2011【42.3 视频截图












杨千嬅<Miriam Yeung Minor Classics Live>香港演唱会2011【42.3 视频剧情截图
杨千嬅<Miriam Yeung Minor Classics Live>香港演唱会2011【42.3 演唱会曲目介绍

演唱会曲目介绍

01. Overture
02. 河童
03. 超龄
04. 一个人的童话
05. 水月镜花
06. 民间传奇
07. 的士司机
08. 电光幻影
09. 风采依然
10. 手信
11. 出埃及记
12. 寒舍
13. 字迹
14. 零号
15. 乱唱的歌
16. 心魔
17. 蓝与黑
18. 私奔
19. 洋葱
20. 深息
21. 稀客
22. 勇
23. 友谊万岁
24. 芬梨道上
25. 最后的玫瑰

Extras Track:
26. 可人儿
27. 我是羊
28. 木偶奇遇记
主音唯一码
lgych-00020
文件大小
42.3G
百度网盘下载
提取码
rduq
文件解压密码
杨千嬅<Miriam Yeung Minor Classics Live>香港演唱会2011【42.3 演唱会视频参数信息

演唱会参数信息

DISC INFO:

Disc Title:     杨千嬅香港演唱会2011【42.3G】1080P蓝光原盘
Disc Size:      45,466,407,561 bytes
Protection:     AACS
BD-Java:        No
BDInfo:         0.5.8

PLAYLIST REPORT:

Name:                   00001.MPLS
Length:                 2:22:51.162 (h:m:s.ms)
Size:                   44,860,704,768 bytes
Total Bitrate:          41.87 Mbps

VIDEO:

Codec                   Bitrate             Description     
-----                   -------             -----------     
MPEG-4 AVC Video        27885 kbps          1080i / 29.970 fps / 16:9 / High Profile 4.1

AUDIO:

Codec                           Language        Bitrate         Description     
-----                           --------        -------         -----------     
DTS-HD Master Audio             Chinese         6512 kbps       5.1 / 96 kHz / 6512 kbps / 24-bit (DTS Core: 6.1 / 48 kHz / 1509 kbps / 24-bit)
Dolby Digital Audio             Chinese         640 kbps        5.1 / 48 kHz / 640 kbps
LPCM Audio                      Chinese         4608 kbps       2.0 / 96 kHz / 4608 kbps / 24-bit

SUBTITLES:

Codec                           Language        Bitrate         Description     
-----                           --------        -------         -----------     
Presentation Graphics           Chinese         24.315 kbps                     

FILES:

Name            Time In         Length          Size            Total Bitrate   
----            -------         ------          ----            -------------   
00003.M2TS      0:00:00.000     1:10:58.621     22,194,376,704  41,693         
00004.M2TS      1:10:58.621     0:57:43.159     18,196,199,424  42,034         
00005.M2TS      2:08:41.780     0:14:09.381     4,470,128,640   42,102         

为您推荐 杨千嬅 相关的演唱会视频
主音唯一码
lgych-00020
文件大小
42.3G
百度网盘下载
提取码
rduq
文件解压密码
最新天气预报