> 纵贯线<2009出发+2010终点站>台北演唱会【87G】1080P蓝光原盘.台
歌 手 : 纵贯线,罗大佑,李宗盛,周华健,张震岳
主音唯一码 : lgych-00029
视频大小 : 87G主音网微信 : zhuyinwang01
创建时间 : 2018-09-10主音网QQ客服 :不在接受qq咨询,有事找微信。说明来意。
视频目录 : 中国台湾演唱会
主音网邮箱 :bimuyu#zhuyin.com(请把#改成@)
主音唯一码
lgych-00029
文件大小
87G
百度网盘下载
提取码
jani
文件解压密码
纵贯线<2009出发+2010终点站>台北演唱会【87G】1080P蓝光原盘.台 视频截图
















纵贯线<2009出发+2010终点站>台北演唱会【87G】1080P蓝光原盘.台 视频剧情截图
纵贯线<2009出发+2010终点站>台北演唱会【87G】1080P蓝光原盘.台 演唱会曲目介绍

演唱会曲目介绍

出发

01. 纵贯线兄弟姊妹
02. 公路
03. 鹿港小镇+分手吧+我终于失去了你+爱相随+出发
04. 鬼迷心窍
05. 让我欢喜让我忧
06. 当爱已成往事
07. 我是一只小小鸟
08. 爱情有甚么道理
09. 路口
10. 思念是一种病
11. 亡命之徒
12. 爱的初体验
13. 我要钱
14. 爱情你我他+自由
15. 船歌
16. 寡妇村传奇
17. 怕黑
18. 飘来飘去+穿过你的黑发的我的手+为你我受冷风吹+伤心的歌
19. 亲爱的
20. 美丽岛
21. 现象72变
22. 亚细亚的孤儿
23. 思念
24. 天使的眼泪
25. 歌+风儿轻轻吹
26. 光阴的故事
27. 恋曲1990
28. 凡人歌
29. 朋友
30. 再见
31. 真心英雄
32. 恋曲1980

终点站

01. 归来
02. 思念是一种病+爱人同志+爱如潮水+你现在还好吗
03. 东风
04. 握手
05. 野百合也有春天
06. 新天地
07. 有光
08. 爱我别走
09. 我想要的感觉
10. 路口
11. 马拉桑
12. 领悟
13. 给自己的歌
14. 爱的代价
15. 闪亮的日子+抱着你
16. 童年
17. 爱的箴言+花心+寂寞难耐+喝酒
18. 爱的初体验
19. 皇后大道东
20. 虹彩妹妹+青春舞曲
21. 再见
22. 鹿港小镇+分手吧+我终于失去了你+爱相随
23. 凡人歌
24. 恋曲1980
25. 明天会更好+真心英雄+朋友+改变明天
26. 出发
主音唯一码
lgych-00029
文件大小
87G
百度网盘下载
提取码
jani
文件解压密码
纵贯线<2009出发+2010终点站>台北演唱会【87G】1080P蓝光原盘.台 演唱会视频参数信息

演唱会参数信息

Disc Title:     纵贯线<出发.终点站 SuperBand Live in Taipei>台北演唱会2010【87G】1080P蓝光原盘
Disc Size:      46,939,861,476 bytes
Protection:     AACS
BD-Java:        No
BDInfo:         0.5.8

PLAYLIST REPORT:

Name:                   00001.MPLS
Length:                 2:42:38.949 (h:m:s.ms)
Size:                   46,638,815,232 bytes
Total Bitrate:          38.23 Mbps

VIDEO:

Codec                   Bitrate             Description     
-----                   -------             -----------     
MPEG-4 AVC Video        31000 kbps          1080i / 29.970 fps / 16:9 / High Profile 4.1

AUDIO:

Codec                           Language        Bitrate         Description     
-----                           --------        -------         -----------     
LPCM Audio                      Chinese         1536 kbps       2.0 / 48 kHz / 1536 kbps / 16-bit
Dolby Digital Audio             Chinese         640 kbps        5.1 / 48 kHz / 640 kbps
DTS-HD Master Audio             Chinese         2839 kbps       5.1 / 48 kHz / 2839 kbps / 16-bit (DTS Core: 5.1 / 48 kHz / 1509 kbps / 16-bit)

SUBTITLES:

Codec                           Language        Bitrate         Description     
-----                           --------        -------         -----------     
Presentation Graphics           Chinese         19.286 kbps                     
Presentation Graphics           Chinese         18.867 kbps                     

FILES:

Name            Time In         Length          Size            Total Bitrate   
----            -------         ------          ----            -------------   
00001.M2TS      0:00:00.000     0:57:18.635     16,412,596,224  38,184         
00002.M2TS      0:57:18.635     1:00:09.005     17,239,412,736  38,214         
00003.M2TS      1:57:27.640     0:45:11.308     12,986,806,272  38,319         

为您推荐 纵贯线,罗大佑,李宗盛,周华健,张震岳 相关的演唱会视频
主音唯一码
lgych-00029
文件大小
87G
百度网盘下载
提取码
jani
文件解压密码
最新天气预报