> 苏打绿<当我们一起走过>台北小巨蛋演唱会2012【34.5G】1080P蓝光
歌 手 : 苏打绿,吴青峰,史俊威,谢馨仪,龚钰祺,刘家凯,何景扬
主音唯一码 : lgych-00031
视频大小 : 34.5G主音网微信 : zhuyinwang01
创建时间 : 2018-09-10主音网QQ客服 :2305540263
视频目录 : 中国台湾演唱会
主音网邮箱 :bimuyu#zhuyin.com(请把#改成@)
主音唯一码
lgych-00031
文件大小
34.5G
百度网盘下载
提取码
8e7r
文件解压密码
苏打绿<当我们一起走过>台北小巨蛋演唱会2012【34.5G】1080P蓝光 视频截图












苏打绿<当我们一起走过>台北小巨蛋演唱会2012【34.5G】1080P蓝光 视频剧情截图
苏打绿<当我们一起走过>台北小巨蛋演唱会2012【34.5G】1080P蓝光 演唱会曲目介绍

演唱会曲目介绍

1.believe in music
2.oh.oh.oh
3.狂热
4.近未来
5.频率
6.各站停靠
7.被雨伤透
8.是我的海
9.无与伦比的美丽
10.这样一个麻烦
11.我的幸福刚刚好
12.你
13.女爵
14.掉了
15.你喔
16.早点回家
17.陪我歌唱
18.小时候
19.yellow + 我最亲爱的
20.喜欢寂寞
点歌环节:纪念+左边+好胆你就来+不甘寂寞+无眠(国语)+安静在沸腾
21.小情歌
22.控制狂
23.飞鱼
24.日光
25.片刻永恒
26.幸福额度
27.你被写在我的歌里
28.如果凝结就是爱
29.燕窝
30.当我们一起走过
31.相信(点歌环节)
32.浪漫派+漂浮+迟到千年(串烧)
33.你在烦恼什么
主音唯一码
lgych-00031
文件大小
34.5G
百度网盘下载
提取码
8e7r
文件解压密码
苏打绿<当我们一起走过>台北小巨蛋演唱会2012【34.5G】1080P蓝光 演唱会视频参数信息

演唱会参数信息

DISC INFO:

Disc Title:     苏打绿<当我们一起走过>台北小巨蛋演唱会2012【34.5G】1080P蓝光原盘
Disc Size:      37,114,728,975 bytes
Protection:     AACS
BD-Java:        No
BDInfo:         0.5.8

PLAYLIST REPORT:

Name:                   00001.MPLS
Length:                 1:55:18.544 (h:m:s.ms)
Size:                   31,839,780,864 bytes
Total Bitrate:          36.82 Mbps

VIDEO:

Codec                   Bitrate             Description     
-----                   -------             -----------     
MPEG-4 AVC Video        30000 kbps          1080i / 29.970 fps / 16:9 / High Profile 4.1

AUDIO:

Codec                           Language        Bitrate         Description     
-----                           --------        -------         -----------     
LPCM Audio                      Chinese         1536 kbps       2.0 / 48 kHz / 1536 kbps / 16-bit
DTS-HD Master Audio             Chinese         2710 kbps       5.1 / 48 kHz / 2710 kbps / 16-bit (DTS Core: 5.1 / 48 kHz / 1509 kbps / 16-bit)
Dolby Digital Audio             Chinese         448 kbps        5.1 / 48 kHz / 448 kbps

SUBTITLES:

Codec                           Language        Bitrate         Description     
-----                           --------        -------         -----------     
Presentation Graphics           Chinese         39.324 kbps                     

FILES:

Name            Time In         Length          Size            Total Bitrate   
----            -------         ------          ----            -------------   
00000.M2TS      0:00:00.000     0:24:45.183     6,815,797,248   36,714         
00001.M2TS      0:24:45.183     0:35:20.985     9,748,629,504   36,770         
00002.M2TS      1:00:06.169     0:55:12.375     15,275,354,112  36,893         

为您推荐 苏打绿,吴青峰,史俊威,谢馨仪,龚钰祺,刘家凯,何景扬 相关的演唱会视频
主音唯一码
lgych-00031
文件大小
34.5G
百度网盘下载
提取码
8e7r
文件解压密码
最新天气预报