> 刘德华<Wonderful World>香港红馆演唱会2007【45.27G】1080P蓝光
歌 手 : 刘德华,华仔
主音唯一码 : lgych-00035
视频大小 : 45.27G主音网微信 : zhuyinwang01
创建时间 : 2018-09-10主音网QQ客服 :不在接受qq咨询,有事找微信。说明来意。
视频目录 : 中国香港演唱会
主音网邮箱 :bimuyu#zhuyin.com(请把#改成@)
主音唯一码
lgych-00035
文件大小
45.27G
百度网盘下载
提取码
ce55
文件解压密码
刘德华<Wonderful World>香港红馆演唱会2007【45.27G】1080P蓝光 视频截图














刘德华<Wonderful World>香港红馆演唱会2007【45.27G】1080P蓝光 视频剧情截图
刘德华<Wonderful World>香港红馆演唱会2007【45.27G】1080P蓝光 演唱会曲目介绍

演唱会曲目介绍:

1. 刘德华《天比高》
2. 刘德华《论坛花花世界》
3. 刘德华《我恨我痴心》
4. 刘德华《男人哭吧不是罪》
5. 刘德华《只知道此刻爱你》
6. 刘德华《情感的禁区》
7. 刘德华《可不可以》
8. 刘德华《一》
9. 刘德华《太想爱》
10. 刘德华《暗里着迷》
11. 刘德华《你是我的女人》
12. 刘德华《没有人可以像你》
13. 刘德华《不是我的我不要》
14. 刘德华《这一生是给你一个》
15. 刘德华《一起走过的日子》
16. 刘德华《一起嗌》
17. 刘德华《无间道》
18. 刘德华《如果我有事》
19. 刘德华《17岁》
20. 刘德华《永远记得你》
21. 刘德华《天天想你》
22. 刘德华《没有翅膀的天使》
主音唯一码
lgych-00035
文件大小
45.27G
百度网盘下载
提取码
ce55
文件解压密码
刘德华<Wonderful World>香港红馆演唱会2007【45.27G】1080P蓝光 演唱会视频参数信息

演唱会参数信息:

DISC INFO:

Disc Title:     刘德华香港演唱会2007【45.27G】1080P蓝光原盘
Disc Size:      48,612,496,744 bytes
Protection:     AACS
BD-Java:        No
BDInfo:         0.5.8

PLAYLIST REPORT:

Name:                   00002.MPLS
Length:                 2:47:58.068 (h:m:s.ms)
Size:                   47,572,568,064 bytes
Total Bitrate:          37.76 Mbps

VIDEO:

Codec                   Bitrate             Description     
-----                   -------             -----------     
MPEG-4 AVC Video        23946 kbps          1080i / 29.970 fps / 16:9 / High Profile 4.1

AUDIO:

Codec                           Language        Bitrate         Description     
-----                           --------        -------         -----------     
LPCM Audio                      Chinese         4608 kbps       5.1 / 48 kHz / 4608 kbps / 16-bit
DTS-HD Master Audio             Chinese         6535 kbps       5.1 / 96 kHz / 6535 kbps / 24-bit (DTS Core: 6.1 / 48 kHz / 1509 kbps / 24-bit)
Dolby Digital Audio             Chinese         384 kbps        5.1 / 48 kHz / 384 kbps / DN -4dB
Dolby Digital Audio             Chinese         192 kbps        2.0 / 48 kHz / 192 kbps / DN -4dB

SUBTITLES:

Codec                           Language        Bitrate         Description     
-----                           --------        -------         -----------     
Presentation Graphics           Chinese         25.003 kbps                     
Presentation Graphics           Chinese         22.813 kbps                     

FILES:

Name            Time In         Length          Size            Total Bitrate   
----            -------         ------          ----            -------------   
00005.M2TS      0:00:00.000     0:51:08.065     15,306,811,392  39,913         
00006.M2TS      0:51:08.065     0:58:17.494     15,614,121,984  35,715         
00007.M2TS      1:49:25.558     0:58:32.509     16,651,634,688  37,925         

为您推荐 刘德华,华仔 相关的演唱会视频
主音唯一码
lgych-00035
文件大小
45.27G
百度网盘下载
提取码
ce55
文件解压密码
最新天气预报