> 吕方<好情歌>香港演唱会2007【45.71G】蓝光原盘
歌 手 : 吕方,张学友,草蜢,伦永亮
主音唯一码 : lgych-00036
视频大小 : 45.71G主音网微信 : zhuyinwang01
创建时间 : 2018-09-10主音网QQ客服 :2305540263
视频目录 : 中国香港演唱会
主音网邮箱 :bimuyu#zhuyin.com(请把#改成@)
主音唯一码
lgych-00036
文件大小
45.71G
百度网盘下载
提取码
r8bk
文件解压密码
吕方<好情歌>香港演唱会2007【45.71G】蓝光原盘 视频截图












吕方<好情歌>香港演唱会2007【45.71G】蓝光原盘 视频剧情截图
吕方<好情歌>香港演唱会2007【45.71G】蓝光原盘 演唱会曲目介绍

演唱会曲目介绍:

1. 吕方《流浪花》
2. 吕方《求你讲清楚》
3. 吕方《月满抱佳人》
4. 吕方《同是寂寞人》
5. 吕方《从未如此深爱过》
6. 吕方《只因我太痴》
7. 吕方《别了秋天+传闻》
8. 吕方《你令我快乐过》
9. 吕方&草蜢《失恋》
10. 吕方&张学友《李香兰》
11. 吕方《地久天长》
12. 吕方《普通人》
13. 吕方《泪的小雨+街灯下+我找到自己》
14. 吕方《我是中国人》
15. 吕方《朋友别哭》
16. 吕方《养你一世》
17. 吕方《爱必胜》
18. 吕方&伦永亮《不要重播+无尽的风》
19. 吕方&伦永亮《沙沙的雨》
20. 吕方&伦永亮《无名小卒》
21. 吕方《每段路》
22. 吕方《不舍得你》
23. 吕方《弯弯的月亮》
24. 吕方《老情歌》
25. 吕方《云河》
26. 吕方《重遇》
27. 吕方《听不到的说话》
主音唯一码
lgych-00036
文件大小
45.71G
百度网盘下载
提取码
r8bk
文件解压密码
吕方<好情歌>香港演唱会2007【45.71G】蓝光原盘 演唱会视频参数信息

演唱会参数信息:

DISC INFO:

Disc Title:     吕方好情歌香港演唱会2007【45.71G】蓝光原盘
Disc Size:      49,085,008,688 bytes
Protection:     AACS
BD-Java:        No
BDInfo:         0.5.8

PLAYLIST REPORT:

Name:                   00000.MPLS
Length:                 2:41:36.987 (h:m:s.ms)
Size:            nbsp;       48,758,556,672 bytes
Total Bitrate:          40.23 Mbps

VIDEO:

Codec                   Bitrate             Description     
-----                   -------             -----------     
MPEG-4 AVC Video        29193 kbps          1080i / 29.970 fps / 16:9 / High Profile 4.1

AUDIO:

Codec                           Language        Bitrate         Description     
-----                           --------        -------         -----------     
LPCM Audio                      Chinese         4608 kbps       5.1 / 48 kHz / 4608 kbps / 16-bit
DTS-HD Master Audio             Chinese         2924 kbps       5.1 / 48 kHz / 2924 kbps / 16-bit (DTS Core: 5.1 / 48 kHz / 1509 kbps / 16-bit)
Dolby Digital Audio             Chinese         640 kbps        5.1 / 48 kHz / 640 kbps
Dolby Digital Audio             Chinese         640 kbps        2.0 / 48 kHz / 640 kbps / Dolby Surround

SUBTITLES:

Codec                           Language        Bitrate         Description     
-----                           --------        -------         -----------     
Presentation Graphics           Chinese         18.699 kbps                     
Presentation Graphics           Chinese         16.995 kbps                     

FILES:

Name            Time In         Length          Size            Total Bitrate   
----            -------         ------          ----            -------------   
00000.M2TS      0:00:00.000     0:53:37.447     16,214,145,024  40,316         
00001.M2TS      0:53:37.447     0:52:07.491     15,686,350,848  40,125         
00002.M2TS      1:45:44.938     0:55:52.048     16,858,060,800  40,233         

为您推荐 吕方,张学友,草蜢,伦永亮 相关的演唱会视频
主音唯一码
lgych-00036
文件大小
45.71G
百度网盘下载
提取码
r8bk
文件解压密码
最新天气预报