> 张敬轩<轩动心弦 Hins Live 2010>香港演唱会【38.05G】1080P蓝光
歌 手 : 张敬轩,孙耀威
主音唯一码 : lgych-00038
视频大小 : 38.05G主音网微信 : zhuyinwang01
创建时间 : 2018-09-10主音网QQ客服 :不在接受qq咨询,有事找微信。说明来意。
视频目录 : 中国香港演唱会
主音网邮箱 :bimuyu#zhuyin.com(请把#改成@)
主音唯一码
lgych-00038
文件大小
38.05G
百度网盘下载
提取码
2x2d
文件解压密码
张敬轩<轩动心弦 Hins Live 2010>香港演唱会【38.05G】1080P蓝光 视频截图












张敬轩<轩动心弦 Hins Live 2010>香港演唱会【38.05G】1080P蓝光 视频剧情截图
张敬轩<轩动心弦 Hins Live 2010>香港演唱会【38.05G】1080P蓝光 演唱会曲目介绍

演唱会曲目介绍:

01. 未来回忆
02. 披星戴月
03. 摄氏零度
04. 期待 (国)
05. 骚灵情歌
06. 遇见 (国)
07. 迷失表参道
08. 静夜的单簧管
09. 樱花树下
10. 断点 (国)
11. 无能为力 (国)
12. 过云雨 (国)
13. 相对论
14. 老了十岁
15. 他的故事
16. 曝光
17. 孤单公园
18. Yes and No
19. 爱的故事上集 (张敬轩 + 孙耀威)
20. 馀震
21. Hurt So Bad (国)
22. 酷爱
23. 春秋
24. My Way (国)
25. 笑忘书
26. Behind The Scene 制作花絮
主音唯一码
lgych-00038
文件大小
38.05G
百度网盘下载
提取码
2x2d
文件解压密码
张敬轩<轩动心弦 Hins Live 2010>香港演唱会【38.05G】1080P蓝光 演唱会视频参数信息

演唱会参数信息:

DISC INFO:

Disc Title:     张敬轩<轩动心弦 Hins Live 2010>香港演唱会【38.05G】1080P蓝光原盘
Disc Size:      40,859,242,645 bytes
Protection:     AACS
BD-Java:        No
BDInfo:         0.5.8

PLAYLIST REPORT:

Name:                   00001.MPLS
Length:                 1:57:52.999 (h:m:s.ms)
Size:                   38,443,935,744 bytes
Total Bitrate:     &nbnbsp;    43.48 Mbps

VIDEO:

Codec                   Bitrate             Description     
-----                   -------             -----------     
MPEG-4 AVC Video        23976 kbps          1080i / 29.970 fps / 16:9 / High Profile 4.1

AUDIO:

Codec                           Language        Bitrate         Description     
-----                           --------        -------         -----------     
LPCM Audio                      Chinese         6144 kbps       7.1 / 48 kHz / 6144 kbps / 16-bit
DTS-HD Master Audio             Chinese         10230 kbps      7.1 / 96 kHz / 10230 kbps / 24-bit (DTS Core: 5.1 / 48 kHz / 1509 kbps / 24-bit)
Dolby Digital EX Audio          Chinese         640 kbps        5.1-EX / 48 kHz / 640 kbps / DN -4dB
Dolby Digital Audio             Chinese         192 kbps        2.0 / 48 kHz / 192 kbps / DN -4dB

SUBTITLES:

Codec                           Language        Bitrate         Description     
-----                           --------        -------         -----------     
Presentation Graphics           Chinese         28.971 kbps                     
Presentation Graphics           Chinese         26.137 kbps                     

FILES:

Name            Time In         Length          Size            Total Bitrate   
----            -------         ------          ----            -------------   
00003.M2TS      0:00:00.000     0:44:52.022     14,616,526,848  43,437         
00004.M2TS      0:44:52.022     0:39:51.489     12,982,222,848  43,428         
00005.M2TS      1:24:43.511     0:33:09.487     10,845,186,048  43,610         

为您推荐 张敬轩,孙耀威 相关的演唱会视频
主音唯一码
lgych-00038
文件大小
38.05G
百度网盘下载
提取码
2x2d
文件解压密码
最新天气预报