> The Big Four 世界巡回演唱会香港站2010【43.78G】1080P蓝光原盘
歌 手 : BigFour,许志安,张卫健,梁汉文,苏永康
主音唯一码 : lgych-00040
视频大小 : 43.78G主音网微信 : zhuyinwang01
创建时间 : 2018-09-10主音网QQ客服 :不在接受qq咨询,有事找微信。说明来意。
视频目录 : 中国香港演唱会
主音网邮箱 :bimuyu#zhuyin.com(请把#改成@)
主音唯一码
lgych-00040
文件大小
43.78G
百度网盘下载
提取码
paet
文件解压密码
The Big Four 世界巡回演唱会香港站2010【43.78G】1080P蓝光原盘 视频截图










The Big Four 世界巡回演唱会香港站2010【43.78G】1080P蓝光原盘 视频剧情截图
The Big Four 世界巡回演唱会香港站2010【43.78G】1080P蓝光原盘 演唱会曲目介绍

演唱会曲目介绍:

1. Big Four《Big Four》
2. Big Four《火热动感La La La》
3. 许志安《雾之恋》
4. 梁汉文《深深深》
5. 苏永康《Careless Whisper》
6. Big Four《伴我启航》
7. 苏永康《不愿一个人》
8. 苏永康《迷糊.情欲.对象》
9. 张卫健《真真假假》
10. 张卫健《哎呀哎呀亲亲你》
11. 梁汉文《半天假》
12. 梁汉文《老死》
13. 梁汉文《七友》
14. 许志安《翻腾》
15. 许志安《将冰山劈开+不倦的蝴蝶》
16. 许志安《反正经》
17. 梁汉文《爱与情》
18. 许志安《爱你》
19. 张卫健《身体健康》
20. 苏永康《越吻越伤心》
21. 苏永康《黑色礼服》
22. 梁汉文《缠绵游戏》
23. 苏永康《男人不该让女人流泪》
24. 许志安《唯独你是不可取替》
25. 张卫健《足球小将》
26. Big Four《爱莫能助》
27. Big Four《我的天我的歌+衣柜里的男人+歌曲》
28. Big Four《法术乌魔多+西游记+歌曲串烧》
主音唯一码
lgych-00040
文件大小
43.78G
百度网盘下载
提取码
paet
文件解压密码
The Big Four 世界巡回演唱会香港站2010【43.78G】1080P蓝光原盘 演唱会视频参数信息

演唱会参数信息:

DISC INFO:

Disc Title:     张卫健 苏永康 梁汉文 许志安 The Big Four 世界巡回演唱会香港站2010【43.78G】1080P蓝光原盘
Disc Size:      47,009,001,540 bytes
Protection:     AACS
BD-Java:        No
BDInfo:         0.5.8

PLAYLIST REPORT:

Name:                   00001.MPLS
Length:                 2:36:09.426 (h:m:s.ms)
Size:                   45,921,533,952 bytes
Total Bitrate:          39.21 Mbps

VIDEO:

Codec                   Bitrate             Description     
-----                   -------             -----------     
MPEG-4 AVC Video        24272 kbps          1080i / 29.970 fps / 16:9 / High Profile 4.1

AUDIO:

Codec                           Language        Bitrate         Description     
-----                           --------        -------         -----------     
LPCM Audio                      Chinese         6912 kbps       5.1 / 48 kHz / 6912 kbps / 24-bit
DTS-HD Master Audio             Chinese         4754 kbps       5.1 / 48 kHz / 4754 kbps / 24-bit (DTS Core: 5.1 / 48 kHz / 1509 kbps / 24-bit)
Dolby Digital Audio             Chinese         640 kbps        5.1 / 48 kHz / 640 kbps / DN -4dB
Dolby Digital Audio             Chinese         384 kbps        2.0 / 48 kHz / 384 kbps / DN -4dB

SUBTITLES:

Codec                           Language        Bitrate         Description     
-----                           --------        -------         -----------     
Presentation Graphics           Chinese         16.048 kbps                     
Presentation Graphics           Chinese         15.668 kbps                     

FILES:

Name            Time In         Length          Size            Total Bitrate   
----            -------         ------          ----            -------------   
00003.M2TS      0:00:00.000     1:57:02.815     35,035,176,960  39,910         
00004.M2TS      1:57:02.815     0:38:52.596     10,806,306,816  37,062         
00009.M2TS      2:35:55.412     0:00:14.014     80,050,176      45,697         

为您推荐 BigFour,许志安,张卫健,梁汉文,苏永康 相关的演唱会视频
主音唯一码
lgych-00040
文件大小
43.78G
百度网盘下载
提取码
paet
文件解压密码
最新天气预报