> 古巨基<The Magic Moments 2007>香港红馆演唱会【44.85G】1080P
歌 手 : 古巨基,郑伊健,周慧敏
主音唯一码 : lgych-00042
视频大小 : 44.85G主音网微信 : zhuyinwang01
创建时间 : 2018-09-10主音网QQ客服 :2305540263
视频目录 : 中国香港演唱会
主音网邮箱 :bimuyu#zhuyin.com(请把#改成@)
主音唯一码
lgych-00042
文件大小
44.85G
百度网盘下载
提取码
66eb
文件解压密码
古巨基<The Magic Moments 2007>香港红馆演唱会【44.85G】1080P 视频截图


















古巨基<The Magic Moments 2007>香港红馆演唱会【44.85G】1080P 视频剧情截图
古巨基<The Magic Moments 2007>香港红馆演唱会【44.85G】1080P 演唱会曲目介绍

演唱会曲目介绍:

01.The Magic World
02.爱与诚
03.伤追人
04.劲歌金曲
05.第二最爱
06.爱与梦飞行
07.大雄
08.来年来日
09.飘流教室
10.Friends
11.梦中人
12.友共情
13.Let's Dance
14.唱这歌
15.敢死队
16.BeatBox
17.Beatbox Medley - 基仔/小方/小田/小肥/小六/小Ink
镭射中(Medley)/爱到发烧(Medley)
Volar(Medley)/半斤八两(Medley)
爱情陷阱(Medley)
18.天才与白痴
19.我自问
20.花洒
21.必杀技
22.欢乐今宵
23.複犯错
24.追
25.爱回家
26.钱钱钱钱
27.友情岁月 (古巨基+郑伊健)
28.爱得太迟 (古巨基+周慧敏合唱版)
29.Love Is Magical
30.爱得太迟
主音唯一码
lgych-00042
文件大小
44.85G
百度网盘下载
提取码
66eb
文件解压密码
古巨基<The Magic Moments 2007>香港红馆演唱会【44.85G】1080P 演唱会视频参数信息

演唱会参数信息:

DISC INFO:

Disc Title:     古巨基香港演唱会【44.85G】1080P蓝光原盘
Disc Size:      48,154,506,450 bytes
Protection:     AACS
BD-Java:        No
BDInfo:         0.5.8

PLAYLIST REPORT:

Name:                   00010.MPLS
Length:                 2:31:33.184 (h:m:s.ms)
Size:                   44,208,058,368 bytes
Total Bitrate:          38.89 Mbps

VIDEO:

Codec                   Bitrate             Description     
-----                   -------             -----------     
MPEG-4 AVC Video        24494 kbps          1080i / 29.970 fps / 16:9 / High Profile 4.1

AUDIO:

Codec                           Language        Bitrate         Description     
-----                           --------        -------         -----------     
LPCM Audio                      Chinese         6912 kbps       5.1 / 48 kHz / 6912 kbps / 24-bit
DTS-HD Master Audio             Chinese         4450 kbps       5.1 / 48 kHz / 4450 kbps / 24-bit (DTS Core: 5.1 / 48 kHz / 1509 kbps / 24-bit)
Dolby Digital Audio             Chinese         640 kbps        5.1 / 48 kHz / 640 kbps
Dolby Digital Audio             Chinese         224 kbps        2.0 / 48 kHz / 224 kbps

SUBTITLES:

Codec                           Language        Bitrate         Description     
-----                           --------        -------         -----------     
Presentation Graphics           Chinese         18.802 kbps                     
Presentation Graphics           Chinese         17.752 kbps                     

FILES:

Name            Time In         Length          Size            Total Bitrate   
----            -------         ------          ----            -------------   
00000.M2TS      0:00:00.000     0:59:59.629     17,492,447,232  38,876         
00001.M2TS      0:59:59.629     0:59:28.598     17,379,729,408  38,961         
00002.M2TS      1:59:28.227     0:32:04.956     9,335,881,728   38,799         

为您推荐 古巨基,郑伊健,周慧敏 相关的演唱会视频
主音唯一码
lgych-00042
文件大小
44.85G
百度网盘下载
提取码
66eb
文件解压密码
最新天气预报