> 蔡琴<不了情经典歌曲>香港红馆演唱会2007【43.71G】1080P蓝光原
歌 手 : 蔡琴
主音唯一码 : lgych-00046
视频大小 : 43.71G主音网微信 : zhuyinwang01
创建时间 : 2018-09-10主音网QQ客服 :2305540263
视频目录 : 中国台湾演唱会
主音网邮箱 :bimuyu#zhuyin.com(请把#改成@)
主音唯一码
lgych-00046
文件大小
43.71G
百度网盘下载
提取码
67my
文件解压密码
蔡琴<不了情经典歌曲>香港红馆演唱会2007【43.71G】1080P蓝光原 视频截图
















蔡琴<不了情经典歌曲>香港红馆演唱会2007【43.71G】1080P蓝光原 视频剧情截图
蔡琴<不了情经典歌曲>香港红馆演唱会2007【43.71G】1080P蓝光原 演唱会曲目介绍

演唱会曲目介绍:

01. Overture
02. 天涯歌女
03. 爱神的箭
04. 白光组歌 - 如果没有你/醉在你的怀中/魂萦旧梦
05. 明月千里寄相思
06. 三年
07. 夜来香
08. 给我一个吻
09. 午夜香吻
10. 洋中组曲 - 大江东去/多少柔情多少泪/雨中旋律
11. 不了情/新不了情
12. 南屏晚钟
13. 好预兆
14. 亲密爱人
15. 今宵多珍重
16. 绿岛小夜曲
17. 流水年华
18. 意难忘
19. 甜蜜蜜
20. 月亮代表我的心
21. 我一见你就笑
22. 往事只能回味
23. 你的眼神
24. 读你
25. 缺口
26. 庭院深深
27. 出塞曲
28. 月光小夜曲
29. 被遗忘的时光
30. 最后一夜
31. 海鸥
32. 再爱我一次
33. 何日君再来
34. 恰似你的温柔
主音唯一码
lgych-00046
文件大小
43.71G
百度网盘下载
提取码
67my
文件解压密码
蔡琴<不了情经典歌曲>香港红馆演唱会2007【43.71G】1080P蓝光原 演唱会视频参数信息

演唱会参数信息:

DISC INFO:

Disc Title:     蔡琴<不了情经典歌曲>香港红馆演唱会2007【43.71G】1080P蓝光原盘
Disc Size:      46,927,979,816 bytes
Protection:     AACS
BD-Java:        No
BDInfo:         0.5.8

PLAYLIST REPORT:

Name:                   00001.MPLS
Length:                 2:32:33.144 (h:m:s.ms)
Size:                   46,510,288,896 bytes
Total Bitrate:          40.65 Mbps

VIDEO:

Codec                   Bitrate             Description     
-----                   -------             -----------     
MPEG-4 AVC Video        23999 kbps          1080i / 29.970 fps / 16:9 / High Profile 4.1

AUDIO:

Codec                           Language        Bitrate         Description     
-----                           --------        -------         -----------     
LPCM Audio                      Chinese         4608 kbps       5.1 / 48 kHz / 4608 kbps / 16-bit
DTS-HD Master Audio             Chinese         9259 kbps       5.1-ES / 96 kHz / 9259 kbps / 24-bit (DTS Core: 6.1-ES / 48 kHz / 1509 kbps / 24-bit)
Dolby Digital EX Audio          Chinese         384 kbps        5.1-EX / 48 kHz / 384 kbps / DN -4dB
Dolby Digital Audio             Chinese         192 kbps        2.0 / 48 kHz / 192 kbps / DN -4dB

SUBTITLES:

Codec                           Language        Bitrate         Description     
-----                           --------        -------         -----------     
Presentation Graphics           Chinese         19.349 kbps                     
Presentation Graphics           Chinese         17.920 kbps                     

FILES:

Name            Time In         Length          Size            Total Bitrate   
----            -------         ------          ----            -------------   
00003.M2TS      0:00:00.000     1:00:58.655     18,577,158,144  40,621         
00005.M2TS      1:00:58.655     0:52:30.147     16,042,899,456  40,742         
00006.M2TS      1:53:28.802     0:39:04.342     11,890,231,296  40,575         

为您推荐 蔡琴 相关的演唱会视频
主音唯一码
lgych-00046
文件大小
43.71G
百度网盘下载
提取码
67my
文件解压密码
最新天气预报