> 陈奕迅<Get A Life>香港红馆演唱会2006【46.15G】1080P蓝光原盘
歌 手 : 陈奕迅
主音唯一码 : lgych-00047
视频大小 : 46.15G主音网微信 : zhuyinwang01
创建时间 : 2018-09-10主音网QQ客服 :2305540263
视频目录 : 中国香港演唱会
主音网邮箱 :bimuyu#zhuyin.com(请把#改成@)
主音唯一码
lgych-00047
文件大小
46.15G
百度网盘下载
提取码
yq5f
文件解压密码
陈奕迅<Get A Life>香港红馆演唱会2006【46.15G】1080P蓝光原盘 视频截图












陈奕迅<Get A Life>香港红馆演唱会2006【46.15G】1080P蓝光原盘 视频剧情截图
陈奕迅<Get A Life>香港红馆演唱会2006【46.15G】1080P蓝光原盘 演唱会曲目介绍

演唱会曲目介绍:

1. 陈奕迅《浮夸》
2. 陈奕迅《怪物》
3. 陈奕迅《心里有鬼》
4. 陈奕迅《两名男子街头相遇》
5. 陈奕迅《不良嗜好》
6. 陈奕迅《Shall We Dance》
7. 陈奕迅《三个人的探戈》
8. 陈奕迅《孤独探戈》
9. 陈奕迅《活著多好》
10. 陈奕迅《怕死》
11. 陈奕迅《烂》
12. 陈奕迅《听听》
13. 陈奕迅《大个女》
14. 陈奕迅《单车》
15. 陈奕迅《最佳损友》
16. 陈奕迅《Shall We Talk》
17. 陈奕迅《如果这一秒钟你跟我讲你不爱我》
18. 陈奕迅《伤信》
19. 陈奕迅《1874》
20. 陈奕迅《黑夜不再来》
21. 陈奕迅《美丽有罪》
22. 陈奕迅《2001太空漫游》
23. 陈奕迅《打得火热》
24. 陈奕迅《送院途中》
25. 陈奕迅《幸灾乐祸》
26. 陈奕迅《忘记歌词》
27. 陈奕迅《夕阳无限好》
28. 陈奕迅《打回原形》
29. 陈奕迅《防不胜防》
30. 陈奕迅《十面埋伏》
31. 陈奕迅《葡萄成熟时》
32. 陈奕迅《King Kong》
33. 陈奕迅《超人的主题曲》
34. 陈奕迅《明年今日》
35. 陈奕迅《K歌之王》
36. 陈奕迅《人来人往》
37. 陈奕迅《阿牛》
38. 陈奕迅《与我常在》
主音唯一码
lgych-00047
文件大小
46.15G
百度网盘下载
提取码
yq5f
文件解压密码
陈奕迅<Get A Life>香港红馆演唱会2006【46.15G】1080P蓝光原盘 演唱会视频参数信息

演唱会参数信息:

DISC INFO:

Disc Title:     陈奕迅香港红馆演唱会2006【46.15G】1080P蓝光原盘
Disc Size:      49,556,296,824 bytes
Protection:     AACS
BD-Java:        No
BDInfo:         0.5.8

PLAYLIST REPORT:

Name:                   00001.MPLS
Length:                 2:47:55.665 (h:m:s.ms)
Size:                   49,090,013,184 bytes
Total Bitrate:          38.98 Mbps

VIDEO:

Codec                   Bitrate             Description     
-----                   -------             -----------     
MPEG-4 AVC Video        27051 kbps          1080i / 29.970 fps / 16:9 / High Profile 4.1

AUDIO:

Codec                           Language        Bitrate         Description     
-----                           --------        -------         -----------     
LPCM Audio                      Chinese         4608 kbps       5.1 / 48 kHz / 4608 kbps / 16-bit
DTS-HD Master Audio             Chinese         4570 kbps       5.1 / 48 kHz / 4570 kbps / 24-bit (DTS Core: 5.1 / 48 kHz / 1509 kbps / 24-bit)
Dolby Digital EX Audio          Chinese         384 kbps        5.1-EX / 48 kHz / 384 kbps / DN -4dB
Dolby Digital Audio             Chinese         192 kbps        2.0 / 48 kHz / 192 kbps / DN -4dB

SUBTITLES:

Codec                           Language        Bitrate         Description     
-----                           --------        -------         -----------     
Presentation Graphics           Chinese         36.695 kbps                     
Presentation Graphics           Chinese         33.508 kbps                     

FILES:

Name            Time In         Length          Size            Total Bitrate   
----            -------         ------          ----            -------------   
00003.M2TS      0:00:00.000     0:42:56.574     12,559,958,016  38,997         
00004.M2TS      0:42:56.574     0:58:11.488     16,964,093,952  38,870         
00005.M2TS      1:41:08.062     1:06:47.603     19,565,961,216  39,058         

为您推荐 陈奕迅 相关的演唱会视频
主音唯一码
lgych-00047
文件大小
46.15G
百度网盘下载
提取码
yq5f
文件解压密码
最新天气预报