> 李克勤.谭咏麟<左麟右李>香港红馆演唱会2009【45.61G】1080P蓝光
歌 手 : 李克勤,谭咏麟
主音唯一码 : lgych-00051
视频大小 : 45.61G主音网微信 : zhuyinwang01
创建时间 : 2018-09-10主音网QQ客服 :不在接受qq咨询,有事找微信。说明来意。
视频目录 : 中国香港演唱会
主音网邮箱 :bimuyu#zhuyin.com(请把#改成@)
主音唯一码
lgych-00051
文件大小
45.61G
百度网盘下载
提取码
trzv
文件解压密码
李克勤.谭咏麟<左麟右李>香港红馆演唱会2009【45.61G】1080P蓝光 视频截图
















李克勤.谭咏麟<左麟右李>香港红馆演唱会2009【45.61G】1080P蓝光 视频剧情截图
李克勤.谭咏麟<左麟右李>香港红馆演唱会2009【45.61G】1080P蓝光 演唱会曲目介绍

演唱会曲目介绍:

1. 李克勤&谭咏麟《天边一只雁+旧欢如梦》
2. 李克勤&谭咏麟《爱人女神+小生怕怕+夏日之神话》
3. 李克勤&谭咏麟《唔使惊》
4. 李克勤&谭咏麟《也曾相识》
5. 李克勤&谭咏麟《合久必婚+无边的思意》
6. 李克勤&谭咏麟《我不会唱歌》
7. 李克勤&谭咏麟《爱在阳光空气中+一生想你+爱是这》
8. 李克勤《飞花》
9. 李克勤《三千零一夜》
10. 谭咏麟《雨夜的浪漫》
11. 谭咏麟《相识非偶然》
12. 李克勤《My Shirley》
13. 谭咏麟《午夜丽人》
14. 李克勤&谭咏麟《恋足一百分》
15. 李克勤&谭咏麟《捕风的汉子》
16. 李克勤&谭咏麟《球迷奇遇记》
17. 李克勤&谭咏麟《夏日寒风》
18. 李克勤&谭咏麟《忘不了你+深深深》
19. 李克勤&谭咏麟《一生不变+一生中最爱》
20. 李克勤&谭咏麟《爱不释手》
21. 李克勤&谭咏麟《笑看人生》
22. 李克勤&谭咏麟《暴风女神+世界停顿》
23. 李克勤&谭咏麟《希望》
24. 李克勤&谭咏麟《大会堂演奏厅》
25. 李克勤&谭咏麟《幻影》
26. 李克勤&谭咏麟《情非首尔》
27. 李克勤&谭咏麟《情凭谁来定错对》
28. 李克勤&谭咏麟《冲出世界》
29. 李克勤&谭咏麟&陈友&曾志伟&陈百祥《朋友》
30. 李克勤&谭咏麟《嗱嗱声》
31. 李克勤&谭咏麟《左邻右里》
32. 李克勤&谭咏麟《知心当玩偶+护花使者+爱你太深》
33. 李克勤&谭咏麟《Victory》
34. 李克勤&谭咏麟《爱的根源》
35. 李克勤&谭咏麟《高妹》
36. 李克勤&谭咏麟《雨丝情愁》
37. 李克勤&谭咏麟《爱情陷阱》
38. 李克勤&谭咏麟《红日》
39. 李克勤&谭咏麟《无言感激+Don't Say Goodbye》
主音唯一码
lgych-00051
文件大小
45.61G
百度网盘下载
提取码
trzv
文件解压密码
李克勤.谭咏麟<左麟右李>香港红馆演唱会2009【45.61G】1080P蓝光 演唱会视频参数信息

演唱会参数信息:

DISC INFO:

Disc Title:     李克勤.谭咏麟<左麟右李>香港红馆演唱会2009【45.61G】1080P蓝光原盘
Disc Size:      48,971,520,182 bytes
Protection:     AACS
BD-Java:        No
BDInfo:         0.5.8

PLAYLIST REPORT:

Name:                   00001.MPLS
Length:                 2:43:29.132 (h:m:s.ms)
Size:                   43,423,967,232 bytes
Total Bitrate:          35.42 Mbps

VIDEO:

Codec                   Bitrate             Description     
-----                   -------             -----------     
MPEG-4 AVC Video        18968 kbps          1080i / 29.970 fps / 16:9 / High Profile 4.1

AUDIO:

Codec                           Language        Bitrate         Description     
-----                           --------        -------         -----------     
LPCM Audio                      Chinese         4608 kbps       5.1 / 48 kHz / 4608 kbps / 16-bit
DTS-HD Master Audio             Chinese         9260 kbps       5.1 / 96 kHz / 9260 kbps / 24-bit (DTS Core: 6.1 / 48 kHz / 1509 kbps / 24-bit)
Dolby Digital Audio             Chinese         384 kbps        5.1 / 48 kHz / 384 kbps / DN -4dB
Dolby Digital Audio             Chinese         192 kbps        2.0 / 48 kHz / 192 kbps / DN -4dB

SUBTITLES:

Codec                           Language        Bitrate         Description     
-----                           --------        -------         -----------     
Presentation Graphics           Chinese         26.635 kbps                     
Presentation Graphics           Chinese         23.732 kbps                     

FILES:

Name            Time In         Length          Size            Total Bitrate   
----            -------         ------          ----            -------------   
00004.M2TS      0:00:00.000     1:01:58.715     17,062,318,080  36,706         
00005.M2TS      1:01:58.715     0:47:30.848     12,306,800,640  34,535         
00006.M2TS      1:49:29.563     0:53:59.569     14,054,848,512  34,708         

为您推荐 李克勤,谭咏麟 相关的演唱会视频
主音唯一码
lgych-00051
文件大小
45.61G
百度网盘下载
提取码
trzv
文件解压密码
最新天气预报