> 谢安琪<好多谢安琪 呐喊>香港红馆演唱会2009【45.36G】1080P蓝光
歌 手 : 谢安琪
主音唯一码 : lgych-00059
视频大小 : 45.36G主音网微信 : zhuyinwang01
创建时间 : 2018-09-10主音网QQ客服 :2305540263
视频目录 : 中国香港演唱会
主音网邮箱 :bimuyu#zhuyin.com(请把#改成@)
主音唯一码
lgych-00059
文件大小
45.36G
百度网盘下载
提取码
ee32
文件解压密码
谢安琪<好多谢安琪 呐喊>香港红馆演唱会2009【45.36G】1080P蓝光 视频截图












谢安琪<好多谢安琪 呐喊>香港红馆演唱会2009【45.36G】1080P蓝光 视频剧情截图
谢安琪<好多谢安琪 呐喊>香港红馆演唱会2009【45.36G】1080P蓝光 演唱会曲目介绍

演唱会曲目介绍:

1. 谢安琪《呐喊》
2. 谢安琪《亡命之途Remix》
3. 谢安琪《跟我走这世界》
4. 谢安琪《悟入歧途》
5. 谢安琪《年度之歌》
6. 谢安琪《姿色份子》
7. 谢安琪《节外生枝》
8. 谢安琪《祝英台》
9. 谢安琪《钟无艳》
10. 谢安琪《私隐线》
11. 谢安琪《神奇女侠的退休》
12. 谢安琪《臭伉俪》
13. 谢安琪《方玲霞》
14. 谢安琪《直角等于三角》
15. 谢安琪《菲情歌》
16. 谢安琪《我歌我故在》
17. 谢安琪《17度》
18. 谢安琪《十字架》
19. 谢安琪《但愿人长久》
20. 谢安琪《我爱茶餐》
21. 谢安琪《丧婆》
22. 谢安琪《Bad Day+如花》
23. 谢安琪《我最喜爱的歌》
24. 谢安琪《愁人节》
25. 谢安琪《字里行奸》
26. 谢安琪《3/8》
27. 谢安琪《囍帖街》
28. 谢安琪《Do Re Mi》
29. 谢安琪&谭咏麟《爱的根源》
30. 谢安琪&谭咏麟《爱人女神》
主音唯一码
lgych-00059
文件大小
45.36G
百度网盘下载
提取码
ee32
文件解压密码
谢安琪<好多谢安琪 呐喊>香港红馆演唱会2009【45.36G】1080P蓝光 演唱会视频参数信息

演唱会参数信息:

DISC INFO:

Disc Title:     谢安琪<好多谢安琪 Yelling 呐喊>香港红馆演唱会2009【45.36G】1080P蓝光原盘
Disc Size:      48,710,032,979 bytes
Protection:     AACS
BD-Java:        No
BDInfo:         0.5.8

PLAYLIST REPORT:

Name:                   00001.MPLS
Length:                 2:25:49.674 (h:m:s.ms)
Size:                   42,295,093,248 bytes
Total Bitrate:          38.67 Mbps

VIDEO:

Codec                   Bitrate             Description     
-----                   -------             -----------     
MPEG-4 AVC Video        22013 kbps          1080i / 29.970 fps / 16:9 / High Profile 4.1

AUDIO:

Codec                           Language        Bitrate         Description     
-----                           --------        -------         -----------     
LPCM Audio                      Chinese         4608 kbps       5.1 / 48 kHz / 4608 kbps / 16-bit
DTS-HD Master Audio             Chinese         9056 kbps       5.1 / 96 kHz / 9056 kbps / 24-bit (DTS Core: 6.1 / 48 kHz / 1509 kbps / 24-bit)
Dolby Digital Audio             Chinese         640 kbps        5.1 / 48 kHz / 640 kbps / DN -4dB
Dolby Digital Audio             Chinese         192 kbps        2.0 / 48 kHz / 192 kbps / DN -4dB

SUBTITLES:

Codec                           Language        Bitrate         Description     
-----                           --------        -------         -----------     
Presentation Graphics           Chinese         28.704 kbps                     
Presentation Graphics           Chinese         25.114 kbps                     

FILES:

Name            Time In         Length          Size            Total Bitrate   
----            -------         ------          ----            -------------   
00003.M2TS      0:00:00.000     1:08:00.042     19,985,836,032  39,188         
00004.M2TS      1:08:00.042     1:03:00.743     18,114,920,448  38,331         
00005.M2TS      2:11:00.786     0:02:34.154     707,715,072     36,728         
00006.M2TS      2:13:34.940     0:04:00.240     1,118,588,928   37,249         
00007.M2TS      2:17:35.180     0:08:14.493     2,368,032,768   38,310         

为您推荐 谢安琪 相关的演唱会视频
主音唯一码
lgych-00059
文件大小
45.36G
百度网盘下载
提取码
ee32
文件解压密码
最新天气预报