> 郑少秋汪明荃喜多郎<新纪元>香港红馆演唱会2011【38.72G】1080P
歌 手 : 郑少秋,汪明荃,喜多郎,李美慧
主音唯一码 : lgych-00061
视频大小 : 38.72G主音网微信 : zhuyinwang01
创建时间 : 2018-09-10主音网QQ客服 :2305540263
视频目录 : 中国香港演唱会
主音网邮箱 :bimuyu#zhuyin.com(请把#改成@)
主音唯一码
lgych-00061
文件大小
38.72G
百度网盘下载
提取码
6wcw
文件解压密码
郑少秋汪明荃喜多郎<新纪元>香港红馆演唱会2011【38.72G】1080P 视频截图










郑少秋汪明荃喜多郎<新纪元>香港红馆演唱会2011【38.72G】1080P 视频剧情截图
郑少秋汪明荃喜多郎<新纪元>香港红馆演唱会2011【38.72G】1080P 演唱会曲目介绍

演唱会曲目介绍:

1. 雅乐园《阴阳》
2. 郑少秋《同途万里人》
3. 汪明荃《似水流年》
4. 郑少秋《星》
5. 汪明荃《月儿弯弯》
6. 汪明荃&郑少秋《月亮代表我的心》
7. 汪明荃《倾城之恋》
8. 汪明荃《京华春梦》
9. 汪明荃《像白云像清风》
10. 汪明荃《用爱将心偷》
11. 汪明荃《勇敢的中国人》
12. 郑少秋&李美慧《天涯孤客》
13. 郑少秋《轮流转》
14. 郑少秋《笑看风云》
15. 郑少秋《做人爱自由》
16. 郑少秋《在水中央》
17. 郑少秋《沧海一声笑》
18. 雅乐园《Can You Feel It》
19. 汪明荃《玫瑰玫瑰我爱你+春风吻上我的脸+给我一个吻》
20. 汪明荃《今宵多珍重+夜来香》
21. 汪明荃《万水千山总是情》
22. 郑少秋《倚天屠龙记+陆小凤》
23. 郑少秋《烽火飞花》
24. 郑少秋《黄帝子孙》
25. 郑少秋《楚留香》
26. 郑少秋&汪明荃《爱在心内暖》
27. 郑少秋&汪明荃《香夭》
28. 郑少秋&汪明荃《友情乐章》
29. 郑少秋&汪明荃《圆月弯刀》
30. 郑少秋&汪明荃《紫钗恨》
主音唯一码
lgych-00061
文件大小
38.72G
百度网盘下载
提取码
6wcw
文件解压密码
郑少秋汪明荃喜多郎<新纪元>香港红馆演唱会2011【38.72G】1080P 演唱会视频参数信息

演唱会参数信息:

DISC INFO:

Disc Title:     郑少秋汪明荃喜多郎新纪元香港红馆演唱会2011【38.72G】1080P蓝光原盘
Disc Size:      41,571,840,307 bytes
Protection:     AACS
BD-Java:        No
BDInfo:         0.5.8

PLAYLIST REPORT:

Name:                   00001.MPLS
Length:                 2:29:27.291 (h:m:s.ms)
Size:                   41,070,630,912 bytes
Total Bitrate:          36.64 Mbps

VIDEO:

Codec                   Bitrate             Description     
-----                   -------             -----------     
MPEG-4 AVC Video        24156 kbps          1080i / 29.970 fps / 16:9 / High Profile 4.1

AUDIO:

Codec                           Language        Bitrate         Description     
-----                           --------        -------         -----------     
LPCM Audio                      Chinese         4608 kbps       5.1 / 48 kHz / 4608 kbps / 16-bit
DTS-HD Master Audio             Chinese         4827 kbps       5.1 / 48 kHz / 4827 kbps / 24-bit (DTS Core: 5.1 / 48 kHz / 1509 kbps / 24-bit)
Dolby Digital Audio             Chinese         640 kbps        5.1 / 48 kHz / 640 kbps
Dolby Digital Audio             Chinese         384 kbps        2.0 / 48 kHz / 384 kbps

SUBTITLES:

Codec                           Language        Bitrate         Description     
-----                           --------        -------         -----------     
Presentation Graphics           Chinese         11.226 kbps                     

FILES:

Name            Time In         Length          Size            Total Bitrate   
----            -------         ------          ----            -------------   
00003.M2TS      0:00:00.000     0:39:07.378     10,778,689,536  36,734         
00004.M2TS      0:39:07.378     0:54:08.411     14,550,448,128  35,834         
00005.M2TS      1:33:15.790     0:56:11.501     15,741,493,248  37,352         

为您推荐 郑少秋,汪明荃,喜多郎,李美慧 相关的演唱会视频
主音唯一码
lgych-00061
文件大小
38.72G
百度网盘下载
提取码
6wcw
文件解压密码
最新天气预报