> 周慧敏<Deep V 25周年>香港红馆演唱会2011【45.22G】1080P蓝光原
歌 手 : 周慧敏,苏永康,张敬轩,古巨基,郑秀文,李克勤
主音唯一码 : lgych-00063
视频大小 : 45.22G主音网微信 : zhuyinwang01
创建时间 : 2018-09-10主音网QQ客服 :2305540263
视频目录 : 中国香港演唱会
主音网邮箱 :bimuyu#zhuyin.com(请把#改成@)
主音唯一码
lgych-00063
文件大小
45.22G
百度网盘下载
提取码
m2ny
文件解压密码
周慧敏<Deep V 25周年>香港红馆演唱会2011【45.22G】1080P蓝光原 视频截图












周慧敏<Deep V 25周年>香港红馆演唱会2011【45.22G】1080P蓝光原 视频剧情截图
周慧敏<Deep V 25周年>香港红馆演唱会2011【45.22G】1080P蓝光原 演唱会曲目介绍

演唱会曲目介绍:

1. 周慧敏《红河村》
2. 周慧敏《天荒爱未老》
3. 周慧敏《孤单的心痛》
4. 周慧敏《感情的分礼》
5. 周慧敏&苏永康《流言》
6. 周慧敏《坏女孩+跳舞街》
7. 周慧敏《对你爱不完+自作心情》
8. 周慧敏&张敬轩《此情只待追忆》
9. 周慧敏《秋樱》
10. 周慧敏《再见我的爱人》
11. 周慧敏《红叶落索的时候》
12. 周慧敏&古巨基《爱得太迟》
13. 周慧敏《假装+自动自觉》
14. 周慧敏《诅咒+借歪》
15. 周慧敏《C'EST LA VIE》
16. 周慧敏《情迷》
17. 周慧敏&郑秀文《不要惊动爱情》
18. 周慧敏《岁月的童话+爱你多过爱他+钢线之舞》
19. 周慧敏《盆栽》
20. 周慧敏《台下女主角》
21. 周慧敏《美少女战士》
22. 周慧敏《如果你知我苦衷》
23. 周慧敏《留恋》
24. 周慧敏《最爱》
25. 周慧敏《为你》
26. 周慧敏《天荒爱未老》
27. 周慧敏&李克勤《万千宠爱在一身》
28. 周慧敏&张敬轩《流言》
29. 柏原芳惠《最爱》
30. 柏原芳惠《尽管是春天》
主音唯一码
lgych-00063
文件大小
45.22G
百度网盘下载
提取码
m2ny
文件解压密码
周慧敏<Deep V 25周年>香港红馆演唱会2011【45.22G】1080P蓝光原 演唱会视频参数信息

演唱会参数信息:

DISC INFO:

Disc Title:     周慧敏香港红馆演唱会2011【45.22G】1080P蓝光原盘
Disc Size:      48,559,543,972 bytes
Protection:     AACS
BD-Java:        No
BDInfo:&nnbsp;        0.5.8

PLAYLIST REPORT:

Name:                   00001.MPLS
Length:                 3:01:09.291 (h:m:s.ms)
Size:                   48,195,336,192 bytes
Total Bitrate:          35.47 Mbps

VIDEO:

Codec                   Bitrate             Description     
-----                   -------             -----------     
MPEG-4 AVC Video        20996 kbps          1080i / 29.970 fps / 16:9 / High Profile 4.1

AUDIO:

Codec                           Language        Bitrate         Description     
-----                           --------        -------         -----------     
LPCM Audio                      Chinese         6912 kbps       5.1 / 48 kHz / 6912 kbps / 24-bit
DTS-HD Master Audio             Chinese         4777 kbps       5.1 / 48 kHz / 4777 kbps / 24-bit (DTS Core: 5.1 / 48 kHz / 768 kbps / 24-bit)
Dolby Digital Audio             Chinese         640 kbps        5.1 / 48 kHz / 640 kbps
Dolby Digital Audio             Chinese         192 kbps        2.0 / 48 kHz / 192 kbps

SUBTITLES:

Codec                           Language        Bitrate         Description     
-----                           --------        -------         -----------     
Presentation Graphics           English         16.137 kbps                     

FILES:

Name            Time In         Length          Size            Total Bitrate   
----            -------         ------          ----            -------------   
00002.M2TS      0:00:00.000     1:02:19.435     16,555,554,816  35,418         
00003.M2TS      1:02:19.435     0:56:17.741     15,015,260,160  35,563         
00004.M2TS      1:58:37.176     1:02:32.115     16,624,521,216  35,446         

为您推荐 周慧敏,苏永康,张敬轩,古巨基,郑秀文,李克勤 相关的演唱会视频
主音唯一码
lgych-00063
文件大小
45.22G
百度网盘下载
提取码
m2ny
文件解压密码
最新天气预报