> 陈奕迅<Eason Moving On Stage>香港红馆演唱会2007【44.74G】108
歌 手 : 陈奕迅
主音唯一码 : lgych-00064
视频大小 : 44.74G主音网微信 : zhuyinwang01
创建时间 : 2018-09-10主音网QQ客服 :2305540263
视频目录 : 中国香港演唱会
主音网邮箱 :bimuyu#zhuyin.com(请把#改成@)
主音唯一码
lgych-00064
文件大小
44.74G
百度网盘下载
提取码
eg3t
文件解压密码
陈奕迅<Eason Moving On Stage>香港红馆演唱会2007【44.74G】108 视频截图












陈奕迅<Eason Moving On Stage>香港红馆演唱会2007【44.74G】108 视频剧情截图
陈奕迅<Eason Moving On Stage>香港红馆演唱会2007【44.74G】108 演唱会曲目介绍

演唱会曲目介绍:

1. 陈奕迅《白玫瑰》
2. 陈奕迅《信心花舍》
3. 陈奕迅《K歌之王》
4. 陈奕迅《裙下之臣》
5. 陈奕迅《富士山下》
6. 陈奕迅《不如不见》
7. 陈奕迅《夕阳无限好》
8. 陈奕迅《人车志》
9. 陈奕迅《马利奥派对》
10. 陈奕迅《最佳损友》
11. 陈奕迅《What a Wonderful World》
12. 陈奕迅《黑择明》
13. 陈奕迅《伤信+幸福摩天轮+给爱丽斯+美丽》
14. 陈奕迅《热岛小夜曲》
15. 陈奕迅《Crying in the Party》
16. 陈奕迅《我不好爱》
17. 陈奕迅《打回原形》
18. 陈奕迅《冲口而出》
19. 陈奕迅《月球上的人》
20. 陈奕迅《葡萄成熟时》
21. 陈奕迅《浮夸》
22. 陈奕迅《低等动物》
23. 陈奕迅《粤语残片》
24. 陈奕迅《淘汰》
25. 陈奕迅《黄金时代》
26. 陈奕迅《落花流水》
27. 陈奕迅《第五个现代化》
28. 陈奕迅《演唱会》
29. 陈奕迅《天下无双》
30. 陈奕迅《与我常在》
31. 陈奕迅《明年今日》
主音唯一码
lgych-00064
文件大小
44.74G
百度网盘下载
提取码
eg3t
文件解压密码
陈奕迅<Eason Moving On Stage>香港红馆演唱会2007【44.74G】108 演唱会视频参数信息

演唱会参数信息:

DISC INFO:

Disc Title:     陈奕迅香港红馆演唱会2007【44.74G】1080P蓝光原盘
Disc Size:      48,041,972,880 bytes
Protection:     AACS
BD-Java:        No
BDInfo:         0.5.8

PLAYLIST REPORT:

Name:                   00001.MPLS
Length:                 2:33:14.185 (h:m:s.ms)
Size:                   46,168,049,664 bytes
Total Bitrate:          40.17 Mbps

VIDEO:

Codec                   Bitrate             Description     
-----                   -------             -----------     
MPEG-4 AVC Video        27439 kbps          1080i / 29.970 fps / 16:9 / High Profile 4.1

AUDIO:

Codec                           Language        Bitrate         Description     
-----                           --------        -------         -----------     
LPCM Audio                      Chinese         4608 kbps       5.1 / 48 kHz / 4608 kbps / 16-bit
DTS-HD Master Audio             Chinese         5330 kbps       5.1 / 48 kHz / 5330 kbps / 24-bit (DTS Core: 5.1 / 48 kHz / 1509 kbps / 24-bit)
Dolby Digital EX Audio          Chinese         384 kbps        5.1-EX / 48 kHz / 384 kbps / DN -4dB
Dolby Digital Audio             Chinese         192 kbps        2.0 / 48 kHz / 192 kbps / DN -4dB

SUBTITLES:

Codec                           Language        Bitrate         Description     
-----                           --------        -------         -----------     
Presentation Graphics           Chinese         34.743 kbps                     
Presentation Graphics           Chinese         31.684 kbps                     

FILES:

Name            Time In         Length          Size            Total Bitrate   
----            -------         ------          ----            -------------   
00003.M2TS      0:00:00.000     0:56:35.392     17,287,501,824  40,732         
00004.M2TS      0:56:35.392     0:56:05.362     16,573,704,192  39,398         
00005.M2TS      1:52:40.754     0:40:33.431     12,306,843,648  40,459         

为您推荐 陈奕迅 相关的演唱会视频
主音唯一码
lgych-00064
文件大小
44.74G
百度网盘下载
提取码
eg3t
文件解压密码
最新天气预报