> 刘德华 Andy Lau 中国巡回演唱会上海站2008【45.64G】1080P蓝光
歌 手 : 刘德华,华仔
主音唯一码 : lgych-00070
视频大小 : 45.64G主音网微信 : zhuyinwang01
创建时间 : 2018-09-10主音网QQ客服 :2305540263
视频目录 : 中国香港演唱会
主音网邮箱 :bimuyu#zhuyin.com(请把#改成@)
主音唯一码
lgych-00070
文件大小
45.64G
百度网盘下载
提取码
serz
文件解压密码
刘德华 Andy Lau 中国巡回演唱会上海站2008【45.64G】1080P蓝光 视频截图














刘德华 Andy Lau 中国巡回演唱会上海站2008【45.64G】1080P蓝光 视频剧情截图
刘德华 Andy Lau 中国巡回演唱会上海站2008【45.64G】1080P蓝光 演唱会曲目介绍

演唱会曲目介绍:

1. 刘德华《中国人》
2. 刘德华《浪人情歌》
3. 刘德华《男人哭吧不是罪》
4. 刘德华《谢谢你的爱》
5. 刘德华《一》
6. 刘德华《太想爱》
7. 刘德华《冰雨》
8. 刘德华《忘情水》
9. 刘德华《十全十美》
10. 刘德华《超人》
11. 刘德华《今天》
12. 刘德华《心肝宝贝》
13. 刘德华《再说一次,我爱你》
14. 刘德华《没有人可以像你》
15. 刘德华《最受欢迎男歌手》
16. 刘德华《无间道》
17. 刘德华《独自去偷欢》
18. 刘德华《开心的马骝》
19. 刘德华《我恨我痴心》
20. 刘德华《我和我追逐的梦》
21. 刘德华《练习》
22. 刘德华《真永远》
主音唯一码
lgych-00070
文件大小
45.64G
百度网盘下载
提取码
serz
文件解压密码
刘德华 Andy Lau 中国巡回演唱会上海站2008【45.64G】1080P蓝光 演唱会视频参数信息

演唱会参数信息:

DISC INFO:

Disc Title:     刘德华 Andy Lau 中国巡回演唱会上海站2008【45.64G】1080P蓝光原盘
Disc Size:      49,007,898,470 bytes
Protection:     AACS
BD-Java:        No
BDInfo:         0.5.8

PLAYLIST REPORT:

Name:                   00001.MPLS
Length:                 2:34:05.236 (h:m:s.ms)
Size:                   46,023,542,784 bytes
Total Bitrate:          39.82 Mbps

VIDEO:

Codec                   Bitrate             Description     
-----                   -------             -----------     
MPEG-4 AVC Video        25493 kbps          1080i / 29.970 fps / 16:9 / High Profile 4.1

AUDIO:

Codec                           Language        Bitrate         Description     
-----                           --------        -------         -----------     
LPCM Audio                      Chinese         4608 kbps       5.1 / 48 kHz / 4608 kbps / 16-bit
DTS-HD Master Audio             Chinese         6965 kbps       5.1 / 96 kHz / 6965 kbps / 24-bit (DTS Core: 6.1 / 48 kHz / 1509 kbps / 24-bit)
Dolby Digital Audio             Chinese         384 kbps        5.1 / 48 kHz / 384 kbps / DN -4dB
Dolby Digital Audio             Chinese         192 kbps        2.0 / 48 kHz / 192 kbps / DN -4dB

SUBTITLES:

Codec                           Language        Bitrate         Description     
-----                           --------        -------         -----------     
Presentation Graphics           Chinese         24.064 kbps                     
Presentation Graphics           Chinese         21.636 kbps                     

FILES:

Name            Time In         Length          Size            Total Bitrate   
----            -------         ------          ----            -------------   
00003.M2TS      0:00:00.000     0:45:19.717     13,729,480,704  40,385         
00004.M2TS      0:45:19.717     0:59:28.564     17,967,194,112  40,279         
00005.M2TS      1:44:48.281     0:49:14.952     14,324,963,328  38,782         
00010.M2TS      2:34:03.234     0:00:02.001     1,904,640       7,486           
为您推荐 刘德华,华仔 相关的演唱会视频
主音唯一码
lgych-00070
文件大小
45.64G
百度网盘下载
提取码
serz
文件解压密码
最新天气预报