> 香港群星<金典娱乐真经典>香港红馆演唱会2010.带KTV字幕【50.1G
歌 手 : 郑少秋,汪明荃,伍卫国,关菊英,张德兰,麦洁文,李美慧
主音唯一码 : lgych-00074
视频大小 : 50.1G主音网微信 : zhuyinwang01
创建时间 : 2018-09-10主音网QQ客服 :不在接受qq咨询,有事找微信。说明来意。
视频目录 : 中国香港演唱会
主音网邮箱 :bimuyu#zhuyin.com(请把#改成@)
主音唯一码
lgych-00074
文件大小
50.1G
百度网盘下载
提取码
i5qn
文件解压密码
香港群星<金典娱乐真经典>香港红馆演唱会2010.带KTV字幕【50.1G 视频截图














香港群星<金典娱乐真经典>香港红馆演唱会2010.带KTV字幕【50.1G 视频剧情截图
香港群星<金典娱乐真经典>香港红馆演唱会2010.带KTV字幕【50.1G 演唱会曲目介绍

演唱会曲目介绍:

1. 麦洁文《电光霹雳舞士+爱跳舞的少女》
2. 麦洁文《莱茵河之恋》
3. 麦洁文《断》
4. 麦洁文&张德兰《乘风破浪》
5. 张德兰《愿君心记取》
6. 张德兰《雨中康乃馨》
7. 张德兰《鲜花满月楼》
8. 仙杜拉《Shau HaHa+好彩又到Sunday》
9. 仙杜拉《送郎》
10. 仙杜拉《啼笑姻缘》
11. 汪明荃《万水千山总是情》
12. 汪明荃《京华春梦》
13. 汪明荃《归帆》
14. 汪明荃《勇敢的中国人》
15. 郑少秋&汪明荃《紫钗恨》
16. 郑少秋&汪明荃《圆月弯刀》
17. 郑少秋&谢雪心《紫钗记之剑合钗圆》
18. 谢雪心《牡丹亭惊梦之幽媾》
19. 伍卫国《何处觅知音》
20. 伍卫国《痴情恨》
21. 关菊英&伍卫国《田园春梦》
22. 关菊英《狂潮》
23. 关菊英《事事未满足》
24. 华娃《董小苑之惜别》
25. 华娃《春青舞曲》
26. 华娃《芸娘》
27. 郑少秋《书剑恩仇录+一剑镇神州》
28. 郑少秋《誓要入刀山+无敌是最寂寞》
29. 郑少秋《决战前夕+倚天屠龙记》
30. 郑少秋&李美慧《爱在心内暖》
31. 郑少秋《楚留香》
32. 伍卫国&麦洁文&张德兰《明日天涯+月儿弯弯+旧侣难忘》
33. 郑少秋&关菊英&汪明荃《绝代双骄+强人+家变》
34. 群星《小李飞刀》
主音唯一码
lgych-00074
文件大小
50.1G
百度网盘下载
提取码
i5qn
文件解压密码
香港群星<金典娱乐真经典>香港红馆演唱会2010.带KTV字幕【50.1G 演唱会视频参数信息

演唱会参数信息:

DISC INFO:

Disc Title:     香港群星金典娱乐真经典香港红馆演唱会2010.KTV字幕【50.1G】1080P蓝光原盘
Disc Size:      46,158,051,150 bytes
Protection:     AACS
BD-Java:        No
BDInfo:         0.5.8

PLAYLIST REPORT:

Name:                   00001.MPLS
Length:                 2:37:51.778 (h:m:s.ms)
Size:                   45,901,682,688 bytes
Total Bitrate:          38.77 Mbps

VIDEO:

Codec                   Bitrate             Description     
-----                   -------             -----------     
MPEG-4 AVC Video        23887 kbps          1080i / 29.970 fps / 16:9 / High Profile 4.1
MPEG-4 AVC Video        1997 kbps           480i / 29.970 fps / 16:9 / High Profile 3.2

AUDIO:

Codec                           Language        Bitrate         Description     
-----                           --------        -------         -----------     
LPCM Audio                      Chinese         4608 kbps       5.1 / 48 kHz / 4608 kbps / 16-bit
DTS-HD Master Audio             Chinese         5107 kbps       5.1 / 48 kHz / 5107 kbps / 24-bit (DTS Core: 5.1 / 48 kHz / 1509 kbps / 24-bit)
Dolby Digital Audio             Chinese         640 kbps        5.1 / 48 kHz / 640 kbps
Dolby Digital Audio             Chinese         384 kbps        2.0 / 48 kHz / 384 kbps

SUBTITLES:

Codec                           Language        Bitrate         Description     
-----                           --------        -------         -----------     
Presentation Graphics           Chinese         14.764 kbps                     

FILES:

Name            Time In         Length          Size            Total Bitrate   
----            -------         ------          ----            -------------   
00003.M2TS      0:00:00.000     1:00:53.883     17,735,577,600  38,831         
00004.M2TS      1:00:53.883     0:55:33.396     16,404,559,872  39,370         
00005.M2TS      1:56:27.280     0:41:23.747     11,761,526,784  37,883         
00007.M2TS      2:37:51.028     0:00:00.750     18,432          188            

为您推荐 郑少秋,汪明荃,伍卫国,关菊英,张德兰,麦洁文,李美慧 相关的演唱会视频
主音唯一码
lgych-00074
文件大小
50.1G
百度网盘下载
提取码
i5qn
文件解压密码
最新天气预报