> 林峰(林峯)<Light Up My Live>香港红馆演唱会2011【38.9G】1080P
歌 手 : 林峰,林峯
主音唯一码 : lgych-00077
视频大小 : 38.9G主音网微信 : zhuyinwang01
创建时间 : 2018-09-10主音网QQ客服 :2305540263
视频目录 : 中国香港演唱会
主音网邮箱 :bimuyu#zhuyin.com(请把#改成@)
主音唯一码
lgych-00077
文件大小
38.9G
百度网盘下载
提取码
keh2
文件解压密码
林峰(林峯)<Light Up My Live>香港红馆演唱会2011【38.9G】1080P 视频截图














林峰(林峯)<Light Up My Live>香港红馆演唱会2011【38.9G】1080P 视频剧情截图
林峰(林峯)<Light Up My Live>香港红馆演唱会2011【38.9G】1080P 演唱会曲目介绍

演唱会曲目介绍:

1. 林峰《热能放送》
2. 林峰《Vampire》
3. 林峰《影子的爱情故事》
4. 林峰《直到你找不到我》
5. 林峰《Come To Me》
6. 林峰《Hello》
7. 林峰《爱与痛的边缘》
8. 林峰《非走不可》
9. 林峰《爱不疚》
10. 林峰《Let's Get Wet》
11. 林峰《太热了》
12. 林峰《初见》
13. 林峰《我们很好》
14. 林峰《赤地转机》
15. 林峰《让我爱你一小时》
16. 林峰《同谋》
17. 林峰《Broken》
18. 林峰《Baby Lady》
19. 林峰《我很痛》
20. 林峰《Light Up My Life》
21. 林峰《记得忘记》
22. 林峰《忘记伤害》
23. 林峰《再一次 (One more time)》
24. 林峰《Chok》
25. 林峰《所谓理想》
26. 林峰《爱在记忆中找你》
27. 林峰《如果时间来到》
28. 林峰《朋友,请不要伤悲》
29. 林峰《爱不疚》
主音唯一码
lgych-00077
文件大小
38.9G
百度网盘下载
提取码
keh2
文件解压密码
林峰(林峯)<Light Up My Live>香港红馆演唱会2011【38.9G】1080P 演唱会视频参数信息

演唱会参数信息:

DISC INFO:

Disc Title:     林峰香港红馆演唱会2011【38.9G】1080P蓝光原盘
Disc Size:      41,767,958,253 bytes
Protection:     AACS
BD-Java:        No
BDInfo:         0.5.8

PLAYLIST REPORT:

Name:                   00001.MPLS
Length:                 2:36:15.799 (h:m:s.ms)
Size:                   41,445,236,736 bytes
Total Bitrate:          35.36 Mbps

VIDEO:

Codec                   Bitrate             Description     
-----                   -------             -----------     
MPEG-4 AVC Video        18997 kbps          1080i / 29.970 fps / 16:9 / High Profile 4.1

AUDIO:

Codec                           Language        Bitrate         Description     
-----                           --------        -------         -----------     
LPCM Audio                      Chinese         4608 kbps       5.1 / 48 kHz / 4608 kbps / 16-bit
DTS-HD Master Audio             Chinese         6181 kbps       5.1 / 96 kHz / 6181 kbps / 24-bit (DTS Core: 5.1 / 48 kHz / 768 kbps / 24-bit)
Dolby Digital Audio             Chinese         640 kbps        5.1 / 48 kHz / 640 kbps
Dolby Digital Audio             Chinese         192 kbps        2.0 / 48 kHz / 192 kbps

SUBTITLES:

Codec                           Language        Bitrate         Description     
-----                           --------        -------         -----------     
Presentation Graphics           Chinese         24.668 kbps                     
Presentation Graphics           Chinese         2773.085 kbps                  

FILES:

Name            Time In         Length          Size            Total Bitrate   
----            -------         ------          ----            -------------   
00002.M2TS      0:00:00.000     0:10:02.401     2,672,295,936   35,489         
00003.M2TS      0:10:02.401     0:09:38.010     2,621,546,496   36,284         
00004.M2TS      0:19:40.412     0:07:43.963     2,072,549,376   35,736         
00005.M2TS      0:27:24.376     0:15:03.769     4,077,471,744   36,093         
00006.M2TS      0:42:28.145     0:10:33.599     2,788,073,472   35,203         
00007.M2TS      0:53:01.745     0:07:05.992     1,825,947,648   34,291         
00008.M2TS      1:00:07.737     0:03:54.801     1,123,952,640   38,295         
00009.M2TS      1:04:02.538     0:10:24.824     2,760,941,568   35,350         
00010.M2TS      1:14:27.362     0:09:33.506     2,507,065,344   34,972         
00011.M2TS      1:24:00.869     0:08:29.375     2,172,696,576   34,123         
00012.M2TS      1:32:30.244     0:08:34.514     2,189,488,128   34,044         
00013.M2TS      1:41:04.758     0:08:27.006     2,359,209,984   37,226         
00014.M2TS      1:49:31.765     0:10:44.844     2,869,850,112   35,604         
00015.M2TS      2:00:16.609     0:04:53.693     1,294,282,752   35,255         
00016.M2TS      2:05:10.302     0:13:04.517     3,287,119,872   33,520         
00017.M2TS      2:18:14.819     0:11:01.794     2,999,580,672   36,260         
00018.M2TS      2:29:16.614     0:06:59.185     1,823,164,416   34,794         

为您推荐 林峰,林峯 相关的演唱会视频
主音唯一码
lgych-00077
文件大小
38.9G
百度网盘下载
提取码
keh2
文件解压密码
最新天气预报