> 侧田<Justin Around The World>泪洒红馆暂别香港演唱会2011【37.
歌 手 : 侧田
主音唯一码 : lgych-00080
视频大小 : 37.53G主音网微信 : zhuyinwang01
创建时间 : 2018-09-10主音网QQ客服 :2305540263
视频目录 : 中国香港演唱会
主音网邮箱 :bimuyu#zhuyin.com(请把#改成@)
主音唯一码
lgych-00080
文件大小
37.53G
百度网盘下载
提取码
u5v2
文件解压密码
侧田<Justin Around The World>泪洒红馆暂别香港演唱会2011【37. 视频截图










侧田<Justin Around The World>泪洒红馆暂别香港演唱会2011【37. 视频剧情截图
侧田<Justin Around The World>泪洒红馆暂别香港演唱会2011【37. 演唱会曲目介绍

演唱会曲目介绍:

1. 侧田《Volar》
2. 侧田《What's Your Name Again?》
3. 侧田《情歌》
4. 侧田《Erica》
5. 侧田《Still In Love》
6. 侧田《红地毡》
7. 侧田《I Want You Back》
8. 侧田《GongXiFaCai Song》
9. 侧田《我有今日》
10. 侧田&C-AllStars《大雄》
11. 侧田《爱的习惯》
12. 侧田《海阔天空》
13. 侧田《未输》
14. 侧田《Smooth Boogie》
15. 侧田《B.O.K》
16. 侧田&尹光《决战二世祖+荷里活+飞甩名模》
17. 侧田《Kong》
18. 侧田《好人》
19. 侧田《情永落》
20. 侧田《三十日》
21. 侧田《男人KTV》
22. 侧田《运》
23. 侧田《Saranghae》
24. 侧田《命硬》
主音唯一码
lgych-00080
文件大小
37.53G
百度网盘下载
提取码
u5v2
文件解压密码
侧田<Justin Around The World>泪洒红馆暂别香港演唱会2011【37. 演唱会视频参数信息

演唱会参数信息:

DISC INFO:

Disc Title:     侧田泪洒红馆暂别香港演唱会2011【37.53G】1080P蓝光原盘
Disc Size:      40,295,394,500 bytes
Protection:     AACS
BD-Java:        No
BDInfo:         0.5.8

PLAYLIST REPORT:

Name:                   00001.MPLS
Length:                 2:09:07.489 (h:m:s.ms)
Size:                   37,382,682,624 bytes
Total Bitrate:          38.60 Mbps

VIDEO:

Codec                   Bitrate             Description     
-----                   -------             -----------     
MPEG-4 AVC Video        23442 kbps          1080i / 29.970 fps / 16:9 / High Profile 4.1

AUDIO:

Codec                           Language        Bitrate         Description     
-----                           --------        -------         -----------     
LPCM Audio                      Chinese         6912 kbps       5.1 / 48 kHz / 6912 kbps / 24-bit
DTS-HD Master Audio             Chinese         5037 kbps       5.1 / 48 kHz / 5037 kbps / 24-bit (DTS Core: 5.1 / 48 kHz / 1509 kbps / 24-bit)
Dolby Digital Audio             Chinese         640 kbps        5.1 / 48 kHz / 640 kbps
Dolby Digital Audio             Chinese         384 kbps        2.0 / 48 kHz / 384 kbps

SUBTITLES:

Codec                           Language        Bitrate         Description     
-----                           --------        -------         -----------     
Presentation Graphics           Chinese         20.322 kbps                     
Presentation Graphics           Chinese         20.884 kbps                     

FILES:

Name            Time In         Length          Size            Total Bitrate   
----            -------         ------          ----            -------------   
00003.M2TS      0:00:00.000     1:05:13.743     18,307,657,728  37,422         
00004.M2TS      1:05:13.743     1:03:46.989     19,071,246,336  39,867         
00009.M2TS      2:09:00.732     0:00:06.005     2,193,408       2,922           
00008.M2TS      2:09:06.738     0:00:00.750     1,585,152       16,173         
为您推荐 侧田 相关的演唱会视频
主音唯一码
lgych-00080
文件大小
37.53G
百度网盘下载
提取码
u5v2
文件解压密码
最新天气预报