> 滨崎步<十周年纪念>亚洲巡回最终站~台北小巨蛋演唱会2008【41.9
歌 手 : 滨崎步
主音唯一码 : lgych-00086
视频大小 : 41.9G主音网微信 : zhuyinwang01
创建时间 : 2018-09-10主音网QQ客服 :不在接受qq咨询,有事找微信。说明来意。
视频目录 : 日本演唱会
主音网邮箱 :bimuyu#zhuyin.com(请把#改成@)
主音唯一码
lgych-00086
文件大小
41.9G
百度网盘下载
提取码
d8e8
文件解压密码
滨崎步<十周年纪念>亚洲巡回最终站~台北小巨蛋演唱会2008【41.9 视频截图












滨崎步<十周年纪念>亚洲巡回最终站~台北小巨蛋演唱会2008【41.9 视频剧情截图
滨崎步<十周年纪念>亚洲巡回最终站~台北小巨蛋演唱会2008【41.9 演唱会曲目介绍

演唱会曲目介绍:

Disc 1

00. reBiRTH
01. The Judgement Day
02. talkin' 2 myself
03. A Song for ××
04. Depend on you
05. Fly high
06. (don't) Leave me alone
07. decision
08. my name's WOMEN
09. Marionette -prelude-
10. Marionette
11. HANABI
12. End roll
13. tasking
14. SURREAL~evolution~SURREAL
15. Mirrorcle World

Disc 2

16. Dearest
17. Voyage
18. Humming 7/4
19. Boys & Girls
20. MY ALL
主音唯一码
lgych-00086
文件大小
41.9G
百度网盘下载
提取码
d8e8
文件解压密码
滨崎步<十周年纪念>亚洲巡回最终站~台北小巨蛋演唱会2008【41.9 演唱会视频参数信息

演唱会参数信息:

DISC INFO:

Disc Title:    滨崎步十周年纪念亚洲巡回最终站~台北小巨蛋演唱会2008【41.9G】1080P蓝光原盘
Disc Size:      44,993,647,740 bytes
Protection:     AACS
BD-Java:        No
BDInfo:         0.5.8

PLAYLIST REPORT:

Name:                   00002.MPLS
Length:                 2:35:34.158 (h:m:s.ms)
Size:                   44,420,861,952 bytes
Total Bitrate:          38.07 Mbps

VIDEO:

Codec                   Bitrate             Description     
-----                   -------             -----------     
MPEG-4 AVC Video        28943 kbps          1080i / 29.970 fps / 16:9 / High Profile 4.1

AUDIO:

Codec                           Language        Bitrate         Description     
-----                           --------        -------         -----------     
LPCM Audio                      Japanese        2304 kbps       2.0 / 48 kHz / 2304 kbps / 24-bit
DTS-HD Master Audio             Japanese        4860 kbps       5.1 / 48 kHz / 4860 kbps / 24-bit (DTS Core: 5.1 / 48 kHz / 1509 kbps / 24-bit)

FILES:

Name            Time In         Length         nbsp; Size            Total Bitrate   
----            -------         ------          ----            -------------   
00004.M2TS      0:00:00.000     1:26:24.312     24,798,111,744  38,266         
00005.M2TS      1:26:24.312     1:03:25.001     18,104,635,392  38,065         
00001.M2TS      2:29:49.313     0:05:44.844     1,518,114,816   35,219         

为您推荐 滨崎步 相关的演唱会视频
主音唯一码
lgych-00086
文件大小
41.9G
百度网盘下载
提取码
d8e8
文件解压密码
最新天气预报