> 李克勤<香港小交响乐团演奏厅>演唱会2011【42.85G】1080P蓝光原
歌 手 : 李克勤
主音唯一码 : lgych-00090
视频大小 : 42.85G主音网微信 : zhuyinwang01
创建时间 : 2018-09-10主音网QQ客服 :不在接受qq咨询,有事找微信。说明来意。
视频目录 : 中国香港演唱会
主音网邮箱 :bimuyu#zhuyin.com(请把#改成@)
主音唯一码
lgych-00090
文件大小
42.85G
百度网盘下载
提取码
2d4m
文件解压密码
李克勤<香港小交响乐团演奏厅>演唱会2011【42.85G】1080P蓝光原 视频截图














李克勤<香港小交响乐团演奏厅>演唱会2011【42.85G】1080P蓝光原 视频剧情截图
李克勤<香港小交响乐团演奏厅>演唱会2011【42.85G】1080P蓝光原 演唱会曲目介绍

演唱会曲目介绍:

01. Tchaikovsky - The Sleeping Beauty : Waltz (香港小交响乐团)
02. Brahms - Hungarian Dance No. 5 in G minor (香港小交响乐团)
03. Brahms - Hungarian Dance No. 5 in G minor (香港小交响乐团 + Rhythm Band)
04. 我不会唱歌
05. 天水?围城
06. 天河
07. 罪人
08. Khachaturian - Sabre Dance (英皇口琴五重奏)
09. 嫲嫲
10. 蓝月亮
11. 深深深
12. 一个人飞
13. 十八板 (赵太生 三弦)
14. 回首
15. 希望
16. 护花使者
17. Medley : 荣誉勋章 / 爱不释手
18. 梦如欢旧 - 旧欢如梦
19. Eduardo di Capua - O Sole Mio (Opus 3)
20. 飞花
21. Bizet - Carmen: Les Taréadors (香港小交响乐团)
22. 合久必婚
23. 只想你会意
24. 九月中的陌生人
25. 一生不变
26. 红日
27. 新闻Medley :
i) 萨拉热窝的罗密欧与茱丽叶
ii) 几分钟约会
iii) 最佳位置
iv) 我为何让你走
28. 月半小夜曲
29. 纸婚
30. 大会堂演奏厅
31. 再见穿梭机
32. 花落谁家
33. 好戏之人
34. 再见演奏厅
35. 在我身边
Bonus Tracks:
36. 高妹
37. 告别校园时
主音唯一码
lgych-00090
文件大小
42.85G
百度网盘下载
提取码
2d4m
文件解压密码
李克勤<香港小交响乐团演奏厅>演唱会2011【42.85G】1080P蓝光原 演唱会视频参数信息

演唱会参数信息:

DISC INFO:

Disc Title:     李克勤香港小交响乐团演奏厅演唱会2011【42.85G】1080P蓝光原盘
Disc Size:      46,005,695,020 bytes
Protection:     AACS
BD-Java:        No
BDInfo:         0.5.8

PLAYLIST REPORT:

Name:                   00001.MPLS
Length:                 2:49:33.630 (h:m:s.ms)
Size:                   45,457,939,392 bytes
Total Bitrate:          35.75 Mbps

VIDEO:

Codec                   Bitrate             Description     
-----                   -------             -----------     
MPEG-4 AVC Video        21005 kbps          1080i / 29.970 fps / 16:9 / High Profile 4.1

AUDIO:

Codec                           Language        Bitrate         Description     
-----                           --------        -------         -----------     
LPCM Audio                      Chinese         4608 kbps       5.1 / 48 kHz / 4608 kbps / 16-bit
DTS-HD Master Audio             Chinese         7505 kbps       5.1 / 96 kHz / 7505 kbps / 24-bit (DTS Core: 6.1 / 48 kHz / 1509 kbps / 24-bit)
Dolby Digital Audio             Chinese         640 kbps        5.1 / 48 kHz / 640 kbps

SUBTITLES:

Codec                           Language        Bitrate         Description     
-----                           --------        -------         -----------     
Presentation Graphics           Chinese         20.916 kbps                     
Presentation Graphics           Chinese         18.589 kbps                     

FILES:

Name            Time In         Length          Size            Total Bitrate   
----            -------         ------          ----            -------------   
00003.M2TS      0:00:00.000     0:54:02.239     14,515,218,432  35,815         
00004.M2TS      0:54:02.239     0:58:46.523     15,736,418,304  35,698         
00005.M2TS      1:52:48.762     0:52:10.460     13,983,449,088  35,735         
00006.M2TS      2:44:59.222     0:02:15.401     605,877,888     35,788         
00007.M2TS      2:47:14.624     0:02:19.005     616,975,680     35,508         

为您推荐 李克勤 相关的演唱会视频
主音唯一码
lgych-00090
文件大小
42.85G
百度网盘下载
提取码
2d4m
文件解压密码
最新天气预报