> 古巨基<惊奇世界 Amazing World>香港红馆演唱会2011【42.18G】10
歌 手 : 古巨基
主音唯一码 : lgych-00098
视频大小 : 42.18G主音网微信 : zhuyinwang01
创建时间 : 2018-09-10主音网QQ客服 :2305540263
视频目录 : 中国香港演唱会
主音网邮箱 :bimuyu#zhuyin.com(请把#改成@)
主音唯一码
lgych-00098
文件大小
42.18G
百度网盘下载
提取码
xads
文件解压密码
古巨基<惊奇世界 Amazing World>香港红馆演唱会2011【42.18G】10 视频截图










古巨基<惊奇世界 Amazing World>香港红馆演唱会2011【42.18G】10 视频剧情截图
古巨基<惊奇世界 Amazing World>香港红馆演唱会2011【42.18G】10 演唱会曲目介绍

演唱会曲目介绍

01. Welcome To Amazing World
02. 花洒
03. 年年有今日
04. 眼睛不能没眼泪
05. Beauty And The Prince
06. 大雄
07. Once Upon A Time
08. 爱回家
09. The Lonely Pirate
10. 大师作品
11. 独男
12. 伤追人
13. 必杀技
14. Flying With The Music
15. 欢乐今宵
16. 爱与诚
17. 心跳回忆/ 漂流教室/一生何求
18. 蓝天与白云
19. Hea
20. Space Fighter
21. 爆了
22. 劲歌金曲 3 - Party King
23. 地球很危险
24. 下次再见
25. 2012!?
26. 以你为荣
27. 时代
28. 义海豪情
29. 重复犯错
30. What Is Amazing World?
31. 爱得太迟
32. 友共情
33. 第二最爱
34. Surprise!
35. 爱的解释
36. The Story Behind
- My Theme Park
- Music Fairy
- I Got The Power
- Boom! Boom! Dance!
- Love Is Amazing
主音唯一码
lgych-00098
文件大小
42.18G
百度网盘下载
提取码
xads
文件解压密码
古巨基<惊奇世界 Amazing World>香港红馆演唱会2011【42.18G】10 演唱会视频参数信息

演唱会参数信息

DISC INFO:

Disc Title:     古巨基世界巡回演唱会<惊奇世界 Amazing World>香港红馆站演唱会2011【42.18G】1080P蓝光原盘
Disc Size:      45,288,172,172 bytes
Protection:     AACS
BD-Java:        No
BDInfo:         0.5.8

PLAYLIST REPORT:

Name:                   00001.MPLS
Length:                 2:43:47.951 (h:m:s.ms)
Size:                   41,332,555,776 bytes
Total Bitrate:          33.64 Mbps

VIDEO:

Codec                   Bitrate             Description     
-----                   -------             -----------     
MPEG-4 AVC Video        16998 kbps          1080i / 29.970 fps / 16:9 / High Profile 4.1

AUDIO:

Codec                           Language        Bitrate         Description     
-----                           --------        -------         -----------     
LPCM Audio                      Chinese         4608 kbps       5.1 / 48 kHz / 4608 kbps / 16-bit
DTS-HD Master Audio             Chinese         6091 kbps       5.1 / 96 kHz / 6091 kbps / 24-bit (DTS Core: 5.1 / 48 kHz / 768 kbps / 24-bit)
Dolby Digital Audio             Chinese         640 kbps        5.1 / 48 kHz / 640 kbps
Dolby Digital Audio             Chinese         192 kbps        2.0 / 48 kHz / 192 kbps

SUBTITLES:

Codec                           Language        Bitrate         Description    nbsp; 
-----                           --------        -------         -----------     
Presentation Graphics           Chinese         18.915 kbps                     
Presentation Graphics           Chinese         3211.001 kbps                  

FILES:

Name            Time In         Length          Size            Total Bitrate   
----            -------         ------          ----            -------------   
00002.M2TS      0:00:00.000     0:12:00.753     3,088,502,784   34,281         
00003.M2TS      0:12:00.753     0:15:50.716     3,988,905,984   33,565         
00004.M2TS      0:27:51.469     0:16:24.917     4,232,202,240   34,376         
00005.M2TS      0:44:16.387     0:04:35.575     1,222,096,896   35,478         
00006.M2TS      0:48:51.962     0:15:35.334     3,768,489,984   32,232         
00007.M2TS      1:04:27.296     0:12:02.621     3,111,327,744   34,445         
00008.M2TS      1:16:29.918     0:09:57.563     2,451,929,088   32,826         
00009.M2TS      1:26:27.482     0:10:06.038     2,751,350,784   36,319         
00010.M2TS      1:36:33.521     0:10:20.987     2,716,729,344   34,999         
00011.M2TS      1:46:54.508     0:15:07.506     3,723,866,112   32,827         
00012.M2TS      2:02:02.014     0:15:47.546     3,855,224,832   32,549         
00013.M2TS      2:17:49.561     0:14:34.573     3,628,259,328   33,189         
00014.M2TS      2:32:24.134     0:11:23.816     2,793,670,656   32,683         

为您推荐 古巨基 相关的演唱会视频
主音唯一码
lgych-00098
文件大小
42.18G
百度网盘下载
提取码
xads
文件解压密码
最新天气预报