> 滨崎步 < A CLIP BOX 1998-2011>出道十三年蓝光PV合集【129.34G
歌 手 : 滨崎步
主音唯一码 : lgych-00105
视频大小 : 129.34G主音网微信 : zhuyinwang01
创建时间 : 2018-09-10主音网QQ客服 :不在接受qq咨询,有事找微信。说明来意。
视频目录 : 日本演唱会
主音网邮箱 :bimuyu#zhuyin.com(请把#改成@)
主音唯一码
lgych-00105
文件大小
129.34G
百度网盘下载
提取码
n5s2
文件解压密码
滨崎步 < A CLIP BOX 1998-2011>出道十三年蓝光PV合集【129.34G 视频截图
















滨崎步 < A CLIP BOX 1998-2011>出道十三年蓝光PV合集【129.34G 视频剧情截图
滨崎步 < A CLIP BOX 1998-2011>出道十三年蓝光PV合集【129.34G 演唱会曲目介绍

演唱会曲目介绍

Disc 1

1 poker face(music clip)
2 YOU(music clip)
3 Trust(music clip)
4 For My Dear...(music clip)
5 Depend on you(music clip)
6 WHATEVER Version M(music clip)
7 LOVE~Destiny~(music clip)
8 TO BE(music clip)
9 Boys & Girls(music clip)
10 A(ロゴ) 〔TV-CM〕
11 appears(music clip)
12 kanariya(music clip)
13 Fly high(music clip)
14 vogue~Far away~SEASONS(music clip)
15 SURREAL(music clip)
16 AUDIENCE 〔TV-CM〕
17 M(music clip)
18 evolution(music clip)
19 NEVER EVER(promotional clip)
20 Endless sorrow(music clip)
21 UNITE!(promotional clip)
22 Dearest(music clip)
23 Daybreak(music clip)
24 Free & Easy(music clip)
25 H(ロゴ)〔TV-CM〕
26 Voyage(music clip)
27 ourselves(music clip)
28 Greatful days(music clip)
29 HANABI~episode II~(music clip)
30 forgiveness(music clip)
31 No way to say(music clip)
32 Moments(music clip)
33 INSPIRE(music clip)
34 CAROLS(music clip)

Disc 2
1 STEP you(music clip)
2 is this LOVE?(music clip)
3 fairyland(music clip)
4 HEAVEN(music clip)
5 Bold & Delicious(music clip)
6 Pride(music clip)
7 Startin'(music clip)
8 Born To Be...(music clip)
9 BLUE BIRD(music clip)
10 距爱~Distance Love~(glitter/fated)(short film)
11 talkin' 2 myself(music clip)
12 decision(music clip)
13 Mirrorcle World(music clip)
14 Days(music clip)
15 GREEN(music clip)
16 Rule(Music Video)
17 Sparkle(Music Video)
18 Sunrise ~LOVE is ALL~(video clip)
19 Sunset ~LOVE is ALL~(music clip)
20 You were...(music clip)
21 BALLAD(music clip)
22 MOON(music clip)
23 blossom(music clip)
24 crossroad(video clip)
25 Virgin Road(video clip)
26 Last angel(video clip)
27 Sweet Season(video clip)

Disc 3

1 Dearest~Original Mix~(Acoustic Piano version music clip)
2 Connected(video clip)
3 Real me(video clip)
4 RAINBOW(video clip)
5 ANGEL'S SONG(video clip)
6 Because of You(video clip)
7 GAME(video clip)
8 About You(video clip)
9 walking proud(video clip)
10 Humming 7/4(video clip)
11 my name's WOMEN(video clip)
12 alterna(video clip)
13 Bold & Delicious -SIDE STORY- (album version)
14 rainy day(video clip)
15 Ladies Night(video clip)
16 Beautiful Fighters(video clip)
17 JEWEL(video clip)
18 1 LOVE(video clip)
19 momentum(video clip)
20 part of Me(video clip)
21 Together When...(video clip)
22 Marionette(video clip)
23 (don't) Leave me alone(video clip)
24 NEXT LEVEL(video clip)
25 Curtain call(video clip)
26 Sexy little things(video clip)
27 Microphone(video clip)
28 Don't look back(video clip)
29 Lady Dynamite(video clip)
30 blossom(music clip -director's cut-)

Disc 4
1 Love song(video clip)
2 do it again(video clip)
3 progress(video clip)
4 ANother song feat. URATA NAOYA(video clip)
5 Why... feat. JUNO(video clip)
6 beloved(video clip)
7 BRILLANTE(video clip)
8 M"Above & Beyond Remix"(video clip)
9 Dream ON(music clip) URATA NAOYA feat. ayumi hamasaki
主音唯一码
lgych-00105
文件大小
129.34G
百度网盘下载
提取码
n5s2
文件解压密码
滨崎步 < A CLIP BOX 1998-2011>出道十三年蓝光PV合集【129.34G 演唱会视频参数信息

演唱会参数信息

DISC INFO:

Disc Title:     滨崎步出道十三年蓝光PV合集【129.34G】1080P蓝光原盘
Disc Size:      38,199,294,370 bytes
Protection:     AACS
BD-Java:        Yes
BDInfo:         0.5.8

PLAYLIST REPORT:

Name:                   00000.MPLS
Length:                 2:36:18.001 (h:m:s.ms)
Size:                   36,840,364,032 bytes
Total Bitrate:          31.43 Mbps

VIDEO:

Codec                   Bitrate             Description     
-----                   -------             -----------     
MPEG-4 AVC Video        28254 kbps          1080i / 29.970 fps / 16:9 / High Profile 4.1

AUDIO:

Codec                           Language        Bitrate         Description     
-----                           --------        -------         -----------     
LPCM Audio                      Japanese        1536 kbps       2.0 / 48 kHz / 1536 kbps / 16-bit

FILES:

Name            Time In         Length          Size            Total Bitrate   
----            -------         ------          ----            -------------   
00024.M2TS      0:00:00.000     0:04:47.287     1,128,677,376   31,430         
00025.M2TS      0:04:47.287     0:04:48.187     1,133,008,896   31,452         
00026.M2TS      0:09:35.474     0:04:53.192     1,149,032,448   31,352         
00027.M2TS      0:14:28.667     0:04:36.476     1,142,046,720   33,046         
00028.M2TS      0:19:05.143     0:04:31.270     1,065,517,056   31,423         
00029.M2TS      0:23:36.414     0:05:32.732     1,307,049,984   31,426         
00030.M2TS      0:29:09.147     0:05:08.207     1,211,842,560   31,455         
00031.M2TS      0:34:17.355     0:05:23.823     1,272,342,528   31,433         
00032.M2TS      0:39:41.178     0:03:52.231     910,344,192     31,360         
00033.M2TS      0:43:33.410     0:00:32.032     125,362,176     31,309         
00000.M2TS      0:44:05.442     0:05:38.237     1,331,613,696   31,495         
00001.M2TS      0:49:43.680     0:04:44.183     1,113,458,688   31,345         
00002.M2TS      0:54:27.864     0:04:12.819     992,016,384     31,391         
00003.M2TS      0:58:40.683     0:07:51.470     1,850,253,312   31,395         
00004.M2TS      1:06:32.154     0:04:50.523     1,142,827,008   31,469         
00005.M2TS      1:11:22.678     0:00:17.016     63,313,920      29,765         
00006.M2TS      1:11:39.695     0:04:27.166     1,048,989,696   31,411         
00007.M2TS      1:16:06.862     0:04:47.287     1,123,393,536   31,283         
00008.M2TS      1:20:54.149     0:01:05.065     253,267,968     31,140         
00009.M2TS      1:21:59.214     0:05:56.522     1,400,905,728   31,435         
00010.M2TS      1:27:55.737     0:00:45.045     174,729,216     31,032         
00011.M2TS      1:28:40.782     0:06:10.870     1,451,476,992   31,310         
00012.M2TS      1:34:51.652     0:05:35.335     1,326,225,408   31,639         
00013.M2TS      1:40:26.987     0:05:19.819     1,254,967,296   31,392         
00014.M2TS      1:45:46.806     0:00:32.031     125,835,264     31,427         
00015.M2TS      1:46:18.838     0:06:53.913     1,624,504,320   31,398         
00016.M2TS      1:53:12.752     0:04:54.627     1,148,971,008   31,198         
00017.M2TS      1:58:07.380     0:04:48.287     1,117,569,024   31,013         
00018.M2TS      2:02:55.668     0:05:01.301     1,182,474,240   31,396         
00019.M2TS      2:07:56.969     0:05:47.346     1,365,823,488   31,457         
00020.M2TS      2:13:44.316     0:05:03.302     1,188,925,440   31,359         
00021.M2TS      2:18:47.619     0:05:38.004     1,316,118,528   31,150         
00022.M2TS      2:24:25.623     0:05:37.337     1,321,506,816   31,340         
00023.M2TS      2:30:02.960     0:06:15.041     1,475,973,120   31,484         

为您推荐 滨崎步 相关的演唱会视频
主音唯一码
lgych-00105
文件大小
129.34G
百度网盘下载
提取码
n5s2
文件解压密码
最新天气预报