> 韩国KARA组合<Best Clips 1 and Shows>MV和LIVE合集【10.57G】10
歌 手 : Kara
主音唯一码 : lgych-00111
视频大小 : 10.57G主音网微信 : zhuyinwang01
创建时间 : 2018-09-10主音网QQ客服 :不在接受qq咨询,有事找微信。说明来意。
视频目录 : 韩国演唱会
主音网邮箱 :bimuyu#zhuyin.com(请把#改成@)
主音唯一码
lgych-00111
文件大小
10.57G
百度网盘下载
提取码
f6ty
文件解压密码
韩国KARA组合<Best Clips 1 and Shows>MV和LIVE合集【10.57G】10 视频截图










韩国KARA组合<Best Clips 1 and Shows>MV和LIVE合集【10.57G】10 视频剧情截图
韩国KARA组合<Best Clips 1 and Shows>MV和LIVE合集【10.57G】10 演唱会曲目介绍

演唱会曲目介绍

1.  "Rock U"
2.  "Pretty Girl"
3.  "Honey"
4.  "Wanna"
5.  "Lupin"
6.  "Jumping"  (Japanese version)
7.  "Mister"
8.  "Jumping"  (Korean version)
9.  "Umbrella" (SBS Inkigayo 2010.2.28)
10.  "Burn" (SBS Inkigayo 2010.11.21)
11.  "Lupin (dust ver.)" (SBS Gayo Daejun 2010.12.29)
主音唯一码
lgych-00111
文件大小
10.57G
百度网盘下载
提取码
f6ty
文件解压密码
韩国KARA组合<Best Clips 1 and Shows>MV和LIVE合集【10.57G】10 演唱会视频参数信息

演唱会参数信息

DISC INFO:

Disc Title:     韩国KARA组合MV和LIVE合集【10.57G】1080P蓝光原盘
Disc Size:      11,351,528,136 bytes
Protection:     AACS
BD-Java:        No
BDInfo:         0.5.8

PLAYLIST REPORT:

Name:                   00001.MPLS
Length:                 0:34:17.421 (h:m:s.ms)
Size:                   10,688,200,704 bytes
Total Bitrate:          41.56 Mbps

VIDEO:

Codec                   Bitrate             Description     
-----                   -------             -----------     
MPEG-4 AVC Video        37987 kbps          1080i / 29.970 fps / 16:9 / High Profile 4.1

AUDIO:

Codec                           Language        Bitrate         Description     
-----                           --------        -------         -----------     
LPCM Audio                      Undetermined    1536 kbps       2.0 / 48 kHz / 1536 kbps / 16-bit

FILES:

Name            Time In         Length          Size            Total Bitrate   
----            -------         ------          ----            -------------   
00002.M2TS      0:00:00.000     0:03:35.515     1,119,645,696   41,562         
00003.M2TS      0:03:35.515     0:03:33.580     1,109,729,280   41,567         
00004.M2TS      0:07:09.095     0:03:14.527     1,010,651,136   41,563         
00005.M2TS      0:10:23.622     0:03:53.366     1,212,389,376   41,562         
00006.M2TS    nbsp;  0:14:16.989     0:03:16.563     1,021,114,368   41,559         
00007.M2TS      0:17:33.552     0:03:13.726     1,006,571,520   41,567         
00008.M2TS      0:20:47.279     0:02:59.579     932,868,096     41,558         
00009.M2TS      0:23:46.858     0:03:22.735     1,052,731,392   41,541         
00010.M2TS      0:27:09.594     0:01:54.881     596,613,120     41,546         
00011.M2TS      0:29:04.476     0:02:21.407     734,662,656     41,563         
00012.M2TS      0:31:25.883     0:02:51.538     891,224,064     41,564         

为您推荐 Kara 相关的演唱会视频
主音唯一码
lgych-00111
文件大小
10.57G
百度网盘下载
提取码
f6ty
文件解压密码
最新天气预报