> 何韵诗<Memento Live 2013>香港红馆演唱会【43.1G】1080P蓝光原
歌 手 : 何韵诗
主音唯一码 : lgych-00129
视频大小 : 43.1G主音网微信 : zhuyinwang01
创建时间 : 2018-09-10主音网QQ客服 :2305540263
视频目录 : 中国香港演唱会
主音网邮箱 :bimuyu#zhuyin.com(请把#改成@)
主音唯一码
lgych-00129
文件大小
43.1G
百度网盘下载
提取码
es9g
文件解压密码
何韵诗<Memento Live 2013>香港红馆演唱会【43.1G】1080P蓝光原 视频截图












何韵诗<Memento Live 2013>香港红馆演唱会【43.1G】1080P蓝光原 视频剧情截图
何韵诗<Memento Live 2013>香港红馆演唱会【43.1G】1080P蓝光原 演唱会曲目介绍
演唱会曲目介绍

01.Prologue
02.钢铁是怎样炼成的
03.天使蓝
04.青山黛玛
05.Horizons
06.我有没有问题
07.疯子
08.迷你与我
09.千千万万个我
10.Reveries
11.不眠皇后
12.韵律泳
13.未来
14.可可
15.与别不同
16.诗与胡说
17.出走太平洋
18.爱没有不对
19.Star-crossed Lovers
20.劳斯.莱斯
21.叹息桥
22.睡王子
23.化蝶
24.痴情司
25.Somebody to Love
26.光明会
27.你是八十年代
28.艳光四射
29.Memories
30.The Science of the crying (眼泪教我的事)
31.满地可
32.木纹
33.明目张胆
34.光荣之家
主音唯一码
lgych-00129
文件大小
43.1G
百度网盘下载
提取码
es9g
文件解压密码
何韵诗<Memento Live 2013>香港红馆演唱会【43.1G】1080P蓝光原 演唱会视频参数信息

演唱会参数信息

DISC INFO:

Disc Title:     何韵诗演唱会.Denise.Ho.HOCC.Memento.Live.2013 香港红馆演唱会【43.1G】1080P蓝光原盘
Disc Size:      46,363,091,462 bytes
Protection:     AACS
BD-Java:        No
BDInfo:         0.5.8

PLAYLIST REPORT:

Name:                   00001.MPLS
Length:                 2:55:11.000 (h:m:s.ms)
Size:                   40,537,454,592 bytes
Total Bitrate:          30.85 Mbps

VIDEO:

Codec                   Bitrate             Description     
-----                   -------             -----------     
MPEG-4 AVC Video        20977 kbps          1080i / 29.970 fps / 16:9 / High Profile 4.1

AUDIO:

Codec                           Language  &nbnbsp;     Bitrate         Description     
-----                           --------        -------         -----------     
DTS-HD Master Audio             Chinese         4813 kbps       5.1 / 48 kHz / 4813 kbps / 24-bit (DTS Core: 5.1 / 48 kHz / 1509 kbps / 24-bit)
Dolby Digital Audio             Chinese         640 kbps        5.1 / 48 kHz / 640 kbps
LPCM Audio                      Chinese         2304 kbps       2.0 / 48 kHz / 2304 kbps / 24-bit
Dolby Digital Audio             Chinese         384 kbps        2.0 / 48 kHz / 384 kbps

SUBTITLES:

Codec                           Language        Bitrate         Description     
-----                           --------        -------         -----------     
Presentation Graphics           Chinese         16.942 kbps                     

FILES:

Name            Time In         Length          Size            Total Bitrate   
----            -------         ------          ----            -------------   
00003.M2TS      0:00:00.000     1:49:07.040     25,243,312,128  30,845         
00004.M2TS      1:49:07.040     1:05:52.948     15,293,521,920  30,951         
00011.M2TS      2:54:59.989     0:00:11.010     620,544         451            
为您推荐 何韵诗 相关的演唱会视频
主音唯一码
lgych-00129
文件大小
43.1G
百度网盘下载
提取码
es9g
文件解压密码
最新天气预报