> 宝丽金<Polygram Forever Live 永恒金曲>香港演唱会2013【42.7G
歌 手 : 谭咏麟,李克勤,陈慧娴,钟镇涛,区瑞强,王馨平,汤宝如,陈晓东
主音唯一码 : lgych-00141
视频大小 : 42.7G主音网微信 : zhuyinwang01
创建时间 : 2018-09-10主音网QQ客服 :2305540263
视频目录 : 中国香港演唱会
主音网邮箱 :bimuyu#zhuyin.com(请把#改成@)
主音唯一码
lgych-00141
文件大小
42.7G
百度网盘下载
提取码
sqqg
文件解压密码
宝丽金<Polygram Forever Live 永恒金曲>香港演唱会2013【42.7G 视频截图












宝丽金<Polygram Forever Live 永恒金曲>香港演唱会2013【42.7G 视频剧情截图
宝丽金<Polygram Forever Live 永恒金曲>香港演唱会2013【42.7G 演唱会曲目介绍
演唱会曲目介绍

1. 《群星_朋友》
2. 《谭咏麟_知心当玩偶》
3. 《谭咏麟_爱情陷阱》
4. 《谭咏麟_爱在深秋》
5. 《谭咏麟.李克勤_雾之恋》
6. 《李克勤_蓝月亮》
7. 《李克勤_月半小夜曲》
8. 《李克勤_沉默的眼睛》
9. 《李克勤.关淑怡_只想您会意》
10. 《关淑怡_难得有情人》
11. 《关淑怡_人生可有知己》
12. 《关淑怡_缱绻星光下》
13. 《关淑怡_夜迷宫》
14. 《关淑怡_午夜狂奔》
15. 《王馨平_别问我是谁》
16. 《王馨平_天荒爱未老》
17. 《汤宝如_感冒》
18. 《汤宝如_一人有一个梦想》
19. 《汤宝如.陈晓东_相思风雨中》
20. 《陈晓东_一万年》
21. 《陈晓东.王馨平_流离所爱》
22. 《陈慧娴_夜机+飘雪》
23. 《陈慧娴_逝去的诺言》
24. 《陈慧娴_傻女》
25. 《区瑞强_陌上归人》
26. 《区瑞强_问我》
27. 《区瑞强.露云娜_大家跟住唱》
28. 《露云娜_传说》
29. 《露云娜_雨中Sha La La》
30. 《钟镇涛_香肠蚊帐机关枪》
31. 《钟镇涛_让一切随风》
32. 《钟镇涛.彭健新_一段情》
33. 《谭咏麟.钟镇涛.彭健新.泰迪罗宾_》
34. 《温拿乐队_玩吓啦+曲中情》
35. 《温拿乐队_这首歌+陪着她》
36. 《群星_千载不变》
主音唯一码
lgych-00141
文件大小
42.7G
百度网盘下载
提取码
sqqg
文件解压密码
宝丽金<Polygram Forever Live 永恒金曲>香港演唱会2013【42.7G 演唱会视频参数信息

演唱会参数信息

DISC INFO:

Disc Title:     宝丽金永恒金曲 香港演唱会2013【42.7G】1080P蓝光原盘
Disc Size:      45,890,849,584 bytes
Protection:     AACS
BD-Java:        No
BDInfo:         0.5.8

PLAYLIST REPORT:

Name:                   00001.MPLS
Length:                 2:39:45.943 (h:m:s.ms)
Size:                   42,393,483,264 bytes
Total Bitrate:          35.38 Mbps

VIDEO:

Codec                   Bitrate            nbsp; Description     
-----                   -------             -----------     
MPEG-4 AVC Video        20999 kbps          1080i / 29.970 fps / 16:9 / High Profile 4.1

AUDIO:

Codec                           Language        Bitrate         Description     
-----                           --------        -------         -----------     
DTS-HD Master Audio             Chinese         7164 kbps       5.1 / 96 kHz / 7164 kbps / 24-bit (DTS Core: 6.1 / 48 kHz / 1509 kbps / 24-bit)
Dolby Digital Audio             Chinese         640 kbps        5.1 / 48 kHz / 640 kbps
LPCM Audio                      Chinese         4608 kbps       2.0 / 96 kHz / 4608 kbps / 24-bit

SUBTITLES:

Codec                           Language        Bitrate         Description     
-----                           --------        -------         -----------     
Presentation Graphics           Chinese         18.948 kbps                     
Presentation Graphics           Chinese         17.312 kbps                     

FILES:

Name            Time In         Length          Size            Total Bitrate   
----            -------         ------          ----            -------------   
00003.M2TS      0:00:00.000     0:58:36.145     15,705,538,560  35,734         
00004.M2TS      0:58:36.145     1:03:37.547     16,720,687,104  35,040         
00005.M2TS      2:02:13.693     0:37:32.250     9,967,257,600   35,404         

为您推荐 谭咏麟,李克勤,陈慧娴,钟镇涛,区瑞强,王馨平,汤宝如,陈晓东 相关的演唱会视频
主音唯一码
lgych-00141
文件大小
42.7G
百度网盘下载
提取码
sqqg
文件解压密码
最新天气预报