> 伍佰<生命的现场>20周年大感谢台北演唱会2013【43.2G】1080P蓝光
歌 手 : 伍佰
主音唯一码 : lgych-00145
视频大小 : 43.2G主音网微信 : zhuyinwang01
创建时间 : 2018-09-10主音网QQ客服 :2305540263
视频目录 : 中国台湾演唱会
主音网邮箱 :bimuyu#zhuyin.com(请把#改成@)
主音唯一码
lgych-00145
文件大小
43.2G
百度网盘下载
提取码
3tav
文件解压密码
伍佰<生命的现场>20周年大感谢台北演唱会2013【43.2G】1080P蓝光 视频截图














伍佰<生命的现场>20周年大感谢台北演唱会2013【43.2G】1080P蓝光 视频剧情截图
伍佰<生命的现场>20周年大感谢台北演唱会2013【43.2G】1080P蓝光 演唱会曲目介绍
演唱会曲目介绍

1. 《伍佰_你是我的花朵》
2. 《伍佰_上帝救救我》
3. 《伍佰_煞到你+烧火》
4. 《伍佰_好运总来》
5. 《伍佰_蓝月》
6. 《伍佰_路+单程车票》
7. 《伍佰_暴雨+火山》
8. 《伍佰_夏夜晚风+199玫瑰》
9. 《伍佰_一亲红颜》
10. 《伍佰_戒指》
11. 《伍佰_挪威的森林》
12. 《伍佰_爱情的尽头》
13. 《伍佰_不满》
14. 《伍佰_只要为你活一天+双面人》
15. 《伍佰_台北孤儿》
16. 《伍佰_枫叶》
17. 《伍佰_翅膀》
18. 《伍佰_抛弃+结》
19. 《伍佰_街角的蔷薇+一生最爱的人》
20. 《伍佰_浪人情歌》
21. 《伍佰_树枝孤鸟》
22. 《伍佰_钢铁男子》
23. 《伍佰_海上的岛》
24. 《伍佰_白鸽》
25. 《伍佰_断肠诗+爱情限时批+台湾制》
26. 《伍佰_来去夏威夷+楼仔厝+下港人》
27. 《伍佰_世界第一等+放开你的脑袋》
28. 《伍佰_风火+太空弹》
29. 《伍佰_时光雨》
30. 《伍佰_牵挂》
31. 《伍佰_晚风+泪桥》
32. 《伍佰_与你到永久》
33. 《伍佰_心爱的再会啦》
34. 《伍佰_厉害》
35. 《伍佰_心如刀割》
36. 《伍佰.陈升_爱你一万年》
37. 《伍佰_Last Dance》
主音唯一码
lgych-00145
文件大小
43.2G
百度网盘下载
提取码
3tav
文件解压密码
伍佰<生命的现场>20周年大感谢台北演唱会2013【43.2G】1080P蓝光 演唱会视频参数信息

演唱会参数信息

DISC INFO:

Disc Title:     伍佰<生命的现场>20周年大感谢台北演唱会2013【43.2G】1080P蓝光原盘
Disc Size:   &nnbsp;  46,481,529,150 bytes
Protection:     AACS
BD-Java:        No
BDInfo:         0.5.8

PLAYLIST REPORT:

Name:                   00000.MPLS
Length:                 3:27:36.243 (h:m:s.ms)
Size:                   44,898,791,424 bytes
Total Bitrate:          28.84 Mbps

VIDEO:

Codec                   Bitrate             Description     
-----                   -------             -----------     
MPEG-4 AVC Video        21976 kbps          1080i / 29.970 fps / 16:9 / High Profile 4.1

AUDIO:

Codec                           Language        Bitrate         Description     
-----                           --------        -------         -----------     
LPCM Audio                      Chinese         1536 kbps       2.0 / 48 kHz / 1536 kbps / 16-bit
Dolby Digital Audio             Chinese         640 kbps        5.1 / 48 kHz / 640 kbps
DTS-HD Master Audio             Chinese         2840 kbps       5.1 / 48 kHz / 2840 kbps / 16-bit (DTS Core: 5.1 / 48 kHz / 1509 kbps / 16-bit)

SUBTITLES:

Codec                           Language        Bitrate         Description     
-----                           --------        -------         -----------     
Presentation Graphics           Chinese         17.089 kbps                     
Presentation Graphics           Chinese         16.717 kbps                     

FILES:

Name            Time In         Length          Size            Total Bitrate   
----            -------         ------          ----            -------------   
00000.M2TS      0:00:00.000     1:48:01.641     23,403,546,624  28,886         
00001.M2TS      1:48:01.641     1:39:34.001     21,494,040,576  28,783         
00008.M2TS      3:27:35.643     0:00:00.600     1,204,224       16,040         

为您推荐 伍佰 相关的演唱会视频
主音唯一码
lgych-00145
文件大小
43.2G
百度网盘下载
提取码
3tav
文件解压密码
最新天气预报