> 单向乐队:这就是我们<One Direction:This Is Us>2013音乐纪录片
歌 手 : 单向乐队,OneDirection
主音唯一码 : lgych-00155
视频大小 : 37.8G主音网微信 : zhuyinwang01
创建时间 : 2018-09-10主音网QQ客服 :2305540263
视频目录 : 欧美演唱会
主音网邮箱 :bimuyu#zhuyin.com(请把#改成@)
主音唯一码
lgych-00155
文件大小
37.8G
百度网盘下载
提取码
mb6a
文件解压密码
单向乐队:这就是我们<One Direction:This Is Us>2013音乐纪录片 视频截图












单向乐队:这就是我们<One Direction:This Is Us>2013音乐纪录片 视频剧情截图
单向乐队:这就是我们<One Direction:This Is Us>2013音乐纪录片 演唱会曲目介绍
暂无
主音唯一码
lgych-00155
文件大小
37.8G
百度网盘下载
提取码
mb6a
文件解压密码
单向乐队:这就是我们<One Direction:This Is Us>2013音乐纪录片 演唱会视频参数信息

演唱会参数信息

DISC INFO:

Disc Title:     单向乐队:这就是我们2013音乐纪录片【37.8G】1080P蓝光原盘
Disc Size:      40,688,239,792 bytes
Protection:     AACS
BD-Java:        Yes
BDInfo:         0.5.8

PLAYLIST REPORT:

Name:                   00002.MPLS
Length:                 1:46:40.268 (h:m:s.ms)
Size:                   23,540,545,536 bytes
Total Bitrate:          29.42 Mbps

VIDEO:

Codec                   Bitrate             Description     
-----                   -------             -----------     
MPEG-4 AVC Video        24757 kbps          1080p / 23.976 fps / 16:9 / High Profile 4.1

AUDIO:

Codec                           Language        Bitrate         Description     
-----                           --------        -------         -----------     
DTS-HD Master Audio             English         2700 kbps       5.1 / 48 kHz / 2700 kbps / 24-bit (DTS Core: 5.1 / 48 kHz / 1509 kbps / 24-bit)

SUBTITLES:

Codec                           Language        Bitrate         Description     
-----                           --------        -------         -----------     
Presentation Graphics           English         41.830 kbps                     
Presentation Graphics           English         37.351 kbps                     
Presentation Graphics           Chinese         32.930 kbps                     
Presentation Graphics           Chinese         35.940 kbps                     
Presentation Graphics           Chinese         29.284 kbps                     
Presentation Graphics           French          25.657 kbps                     
Presentation Graphics           Indonesian      37.717 kbps                     
Presentation Graphics           Korean          29.152 kbps                     
Presentation Graphics           Malay           38.505 kbps                     
Presentation Graphics           Portuguese      31.589 kbps                     
Presentation Graphics           Spanish         32.676 kbps                     
Presentation Graphics           Thai            31.914 kbps                     

FILES:

Name            Time In         Length          Size            Total Bitrate   
----            -------         ------          ----            -------------   
00002.M2TS      0:00:00.000     0:08:56.494     1,968,347,136   29,351         
00004.M2TS      0:08:56.494     0:01:00.894     223,309,824     29,337         
00005.M2TS      0:09:57.388     0:17:19.455     3,826,581,504   29,451         
00007.M2TS      0:27:16.843     0:05:57.357     1,298,515,968   29,069         
00008.M2TS      0:33:14.200     0:08:26.255     1,854,081,024   29,299         
00010.M2TS      0:41:40.456     0:03:50.188     849,039,360     29,508         
00011.M2TS      0:45:30.644     0:03:08.730     694,419,456     29,435         
00013.M2TS      0:48:39.374     0:04:40.071     1,042,022,400   29,764         
00014.M2TS      0:53:19.446     0:00:47.672     180,013,056     30,208         
00016.M2TS      0:54:07.118     0:03:20.533     742,748,160     29,631         
00019.M2TS      0:57:27.652     0:21:27.911     4,739,168,256   29,438         
00020.M2TS      1:18:55.564     0:00:43.668     165,574,656     30,333         
00022.M2TS      1:19:39.232     0:04:59.799     1,104,457,728   29,472         
00023.M2TS      1:24:39.032     0:22:01.236     4,852,267,008   29,380         

为您推荐 单向乐队,OneDirection 相关的演唱会视频
主音唯一码
lgych-00155
文件大小
37.8G
百度网盘下载
提取码
mb6a
文件解压密码
最新天气预报