> 王菀之<菀之论>香港红馆演唱会2014【43.4G】1080P蓝光原盘
歌 手 : 王菀之
主音唯一码 : lgych-00156
视频大小 : 43.4G主音网微信 : zhuyinwang01
创建时间 : 2018-09-10主音网QQ客服 :2305540263
视频目录 : 中国香港演唱会
主音网邮箱 :bimuyu#zhuyin.com(请把#改成@)
主音唯一码
lgych-00156
文件大小
43.4G
百度网盘下载
提取码
dipd
文件解压密码
王菀之<菀之论>香港红馆演唱会2014【43.4G】1080P蓝光原盘 视频截图
















王菀之<菀之论>香港红馆演唱会2014【43.4G】1080P蓝光原盘 视频剧情截图
王菀之<菀之论>香港红馆演唱会2014【43.4G】1080P蓝光原盘 演唱会曲目介绍
演唱会曲目介绍

01. 我真的受伤了 (视听版)
02. Prelude I - Primordial Reality
03. 最好的
04. 雷电 (视听版)
05. 星空
06. 我来自火星
07. 真心话 (视听版)
08. 她扔了根火柴
09. 粒糖有毒
10. 皇后餐厅
11. 开笼雀
12. 下次爱你
13. 小心易碎 (视听版)
14. 一秒感动 (视听版)
15. 满天星 (视听版)
16. (巴黎没有)摩天轮 (视听版)
17. 我好爱你 (视听版)
18. Prelude II – Heaven
19. 天堂有路(with The Chorale di Paradiso)
20. 画外音(with The Chorale di Paradiso)
21. 末日(with The Chorale di Paradiso)
22. 小团圆
23. 安妮 . 法兰克
24. 低科技之歌
25. Chotto 等等
26. Ivana’s monologue
27. 幻影
28. 如果这是情
29. 手望 (视听版)
30. Alex’s music solo
31. Made of Water
32. 柳暗花明
33. 水百合
34. 留白
35. 迷失表参道
36. 好时辰

Extras
37. Tap Dance Battle
38. 见证「苑之论」诞生过程 The Making Of (30分钟)

Bonus Concert Visuals
39. Prelude I - Primordial Reality
40. 皇后餐厅
41. 小心易碎
42. 一秒感动
43. 满天星
44. (巴黎没有)摩天轮
45. Prelude II - Heaven
46. 柳暗花明
47. 水百合
48. 迷失表参道
49. 好时辰
主音唯一码
lgych-00156
文件大小
43.4G
百度网盘下载
提取码
dipd
文件解压密码
王菀之<菀之论>香港红馆演唱会2014【43.4G】1080P蓝光原盘 演唱会视频参数信息

演唱会参数信息

DISC INFO:

Disc Title:     Ivana Wong Live Concert 2014王菀之<菀之论>香港红馆演唱会2014【43.4G】1080P蓝光原盘
Disc Size:      46,678,569,836 bytes
Protection:     AACS
BD-Java:        No
BDInfo:         0.5.8

PLAYLIST REPORT:

Name:                   00001.MPLS
Length:                 3:37:40.380 (h:m:s.ms)
Size:                   46,199,003,136 bytes
Total Bitrate:          28.30 Mbps

VIDEO:

Codec                   Bitrate             Description     
-----                   -------             -----------     
MPEG-4 AVC Video        17993 kbps          1080i / 29.970 fps / 16:9 / High Profile 4.1

AUDIO:

Codec                           Language        Bitrate         Description     
-----                           --------        -------         -----------     
DTS-HD Master Audio             Chinese         4598 kbps       5.1 / 96 kHz / 4598 kbps / 24-bit (DTS Core: 6.1 / 48 kHz / 1509 kbps / 24-bit)
Dolby Digital Audio             Chinese         640 kbps        5.1 / 48 kHz / 640 kbps
LPCM Audio                      Chinese         4608 kbps       2.0 / 96 kHz / 4608 kbps / 24-bit
Dolby Digital Audio             Chinese         384 kbps        2.0 / 48 kHz / 384 kbps

SUBTITLES:

Codec                           Language        Bitrate         Description     
-----                           --------        -------         -----------     
Presentation Graphics           Chinese         15.220 kbps                     

FILES:

Name            Time In         Length          Size            Total Bitrate   
----            -------         ------          ----            -------------   
00003.M2TS      0:00:00.000     1:30:47.108     23,336,798,208  34,274         
00004.M2TS      1:30:47.108     0:53:39.482     13,806,360,576  34,307         
00005.M2TS      2:24:26.591     0:02:53.706     378,642,432     17,438         
00006.M2TS      2:27:20.298     0:27:50.502     3,653,265,408   17,495         
00007.M2TS      2:55:10.800     0:42:19.570     5,022,683,136   15,822         
00011.M2TS      3:37:30.370     0:00:10.009     1,253,376       1,002           
为您推荐 王菀之 相关的演唱会视频
主音唯一码
lgych-00156
文件大小
43.4G
百度网盘下载
提取码
dipd
文件解压密码
最新天气预报