> 伍佰<光和热.无尽闪亮的世界>台北演唱会2015【43.3G】1080P蓝光
歌 手 : 伍佰
主音唯一码 : lgych-00158
视频大小 : 43.3G主音网微信 : zhuyinwang01
创建时间 : 2018-09-10主音网QQ客服 :不在接受qq咨询,有事找微信。说明来意。
视频目录 : 中国台湾演唱会
主音网邮箱 :bimuyu#zhuyin.com(请把#改成@)
主音唯一码
lgych-00158
文件大小
43.3G
百度网盘下载
提取码
d4si
文件解压密码
伍佰<光和热.无尽闪亮的世界>台北演唱会2015【43.3G】1080P蓝光 视频截图












伍佰<光和热.无尽闪亮的世界>台北演唱会2015【43.3G】1080P蓝光 视频剧情截图
伍佰<光和热.无尽闪亮的世界>台北演唱会2015【43.3G】1080P蓝光 演唱会曲目介绍
演唱会曲目介绍

1.王道
2. 生存游戏
3.上瘾了
4. 快乐的等待
5.我们注定在一起
6.一生最爱的人
7.树枝孤鸟
8.台湾制造
9.稀微的风中
10.华丽的水波
11.无尽闪亮的哀愁
12.挪威的森林
13.青春与爱情
14.继续堕落
15.就是因为爱
16.亏欠
17.牵挂
18.树风
19.爱情的尽头
20.闪光魔术
21.W1职业摔角
22.黄色月亮
23.假扮的天使
24.小妹
25.手
26.浪人情歌
27.白鹭鸶
28.你是我的花朵
29.美丽新世界
30.再度重相逢
31.被动
32. 亲爱的,你喝醉了
主音唯一码
lgych-00158
文件大小
43.3G
百度网盘下载
提取码
d4si
文件解压密码
伍佰<光和热.无尽闪亮的世界>台北演唱会2015【43.3G】1080P蓝光 演唱会视频参数信息
演唱会参数信息

DISC INFO:

Disc Title:     伍佰<光和热.无尽闪亮的世界>台北演唱会【43.3G】1080P蓝光原盘
Disc Size:      46,501,704,227 bytes
Protection:     AACS
BD-Java:        No
BDInfo:         0.5.8

PLAYLIST REPORT:

Name:                   00000.MPLS
Length:                 3:12:31.239 (h:m:s.ms)
Size:                   43,778,887,680 bytes
Total Bitrate:          30.32 Mbps

VIDEO:

Codec                   Bitrate             Description     
-----                   -------             -----------     
MPEG-4 AVC Video        16983 kbps          1080i / 29.970 fps / 16:9 / High Profile 4.1

AUDIO:

Codec                           Language        Bitrate         Description     
-----                           --------        -------         -----------     
LPCM Audio                      Chinese         4608 kbps       2.0 / 96 kHz / 4608 kbps / 24-bit
Dolby TrueHD Audio              Chinese         2333 kbps       5.1 / 48 kHz / 2333 kbps / 16-bit (AC3 Embedded: 5.1 / 48 kHz / 640 kbps)
DTS-HD Master Audio             Chinese         2926 kbps&nnbsp;      5.1 / 48 kHz / 2926 kbps / 24-bit (DTS Core: 5.1 / 48 kHz / 1509 kbps / 24-bit)

SUBTITLES:

Codec                           Language        Bitrate         Description     
-----                           --------        -------         -----------     
Presentation Graphics           Chinese         12.499 kbps                     
Presentation Graphics           Chinese         12.241 kbps                     

FILES:

Name            Time In         Length          Size            Total Bitrate   
----            -------         ------          ----            -------------   
00004.M2TS      0:00:00.000     0:00:09.376     22,560,768      19,250         
00000.M2TS      0:00:09.376     3:12:21.263     43,755,122,688  30,330         
00008.M2TS      3:12:30.639     0:00:00.600     1,204,224       16,040         

为您推荐 伍佰 相关的演唱会视频
主音唯一码
lgych-00158
文件大小
43.3G
百度网盘下载
提取码
d4si
文件解压密码
最新天气预报