> 张清芳<芳华盛宴 Stella Live Concert 2015>演唱会【43.8G】1080
歌 手 : 张清芳
主音唯一码 : lgych-00168
视频大小 : 43.8G主音网微信 : zhuyinwang01
创建时间 : 2018-09-10主音网QQ客服 :不在接受qq咨询,有事找微信。说明来意。
视频目录 : 中国台湾演唱会
主音网邮箱 :bimuyu#zhuyin.com(请把#改成@)
主音唯一码
lgych-00168
文件大小
43.8G
百度网盘下载
提取码
b6m7
文件解压密码
张清芳<芳华盛宴 Stella Live Concert 2015>演唱会【43.8G】1080 视频截图












张清芳<芳华盛宴 Stella Live Concert 2015>演唱会【43.8G】1080 视频剧情截图
张清芳<芳华盛宴 Stella Live Concert 2015>演唱会【43.8G】1080 演唱会曲目介绍
演唱会曲目介绍

01. 你喜欢我的歌吗
02. 串起每一刻
03. 无人熟识
04. 天天年轻
05. 加州阳光
06. Men's talk
07. 激情过后
08. 经典组曲:昨日梦已远+ 走时请关窗+ 错不在你+ 旧爱难了
09. 出嫁
10. 我还年轻
11. 民歌组曲:偶然+ 风告诉我+ 捉泥鳅+ 小木船+ 月琴
12. 90 组曲:情难枕+ 我是不是你最疼爱的人+问+猜心+ 最浪漫的事
13. 花雨夜
14. 纯粹
15. 为爱落泪
16. 女人缘
17. 不想你也难
18. 燃烧一瞬间
19. 认真的眼睛
20. 大雨的夜里
Bonus track 盛宴之后- 张清芳的每一面幕后密访
主音唯一码
lgych-00168
文件大小
43.8G
百度网盘下载
提取码
b6m7
文件解压密码
张清芳<芳华盛宴 Stella Live Concert 2015>演唱会【43.8G】1080 演唱会视频参数信息
演唱会参数信息

DISC INFO:

Disc Title:     张清芳<芳华盛宴 Stella Live Concert 2015>演唱会【43.8G】1080P蓝光原盘
Disc Size:      47,105,642,044 bytes
Protection:     AACS
BD-Java:        No
BDInfo:         0.5.8

PLAYLIST REPORT:

Name:                   00000.MPLS
Length:                 2:29:16.814 (h:m:s.ms)
Size:                   46,190,867,520 bytes
Total Bitrate:          41.26 Mbps

VIDEO:

Codec                   Bitrate             Description     
-----                   -------             -----------     
MPEG-4 AVC Video        27776 kbps          1080i / 29.970 fps / 16:9 / High Profile 4.1

AUDIO:

Codec                           Language        Bitrate         Description     
-----                           --------        -------         -----------     
LPCM Audio                      Chinese         4608 kbps       2.0 / 96 kHz / 4608 kbps / 24-bit
Dolby Digital Audio             Chinese         640 kbps        5.1 / 48 kHz / 640 kbps
DTS-HD Master Audio             Chinese         5997 kbps       5.1 / 96 kHz / 5997 kbps / 24-bit (DTS Core: 5.1 / 48 kHz / 1509 kbps / 24-bit)

SUBTITLES:

Codec                           Language        Bitrate         Description     
-----                           --------        -------         -----------     
Presentation Graphics           Chinese         16.885 kbps                     

FILES:

Name            Time In         Length          Size            Total Bitrate   
----            -------         ------          ----            -------------   
00000.M2TS      0:00:00.000     1:58:17.090     36,655,318,272  41,319         
00001.M2TS      1:58:17.090     0:30:59.123     9,534,345,024   41,027         
00013.M2TS      2:29:16.213     0:00:00.600     1,204,224       16,040         

为您推荐 张清芳 相关的演唱会视频
主音唯一码
lgych-00168
文件大小
43.8G
百度网盘下载
提取码
b6m7
文件解压密码
最新天气预报