> Apink组合日本第二次巡回演唱会2016【43.3G】1080P蓝光原盘
歌 手 : Apink,朴初珑,尹普美,郑恩地,孙娜恩,金南珠,吴夏荣
主音唯一码 : lgych-00173
视频大小 : 43.3G主音网微信 : zhuyinwang01
创建时间 : 2018-09-10主音网QQ客服 :2305540263
视频目录 : 韩国演唱会
主音网邮箱 :bimuyu#zhuyin.com(请把#改成@)
主音唯一码
lgych-00173
文件大小
43.3G
百度网盘下载
提取码
unac
文件解压密码
Apink组合日本第二次巡回演唱会2016【43.3G】1080P蓝光原盘 视频截图












Apink组合日本第二次巡回演唱会2016【43.3G】1080P蓝光原盘 视频剧情截图
Apink组合日本第二次巡回演唱会2016【43.3G】1080P蓝光原盘 演唱会曲目介绍
演唱会曲目介绍

01. Opening  
02. Brand New Days  
03. モルラヨ  
04. IT GIRL  
05. I Need You  
06. 花占い  
07. What A Boy Wants  
08. Secret Garden  
09. Dejavu  
10. 梦のように (クムキョルチョロム)  
11. The Wave (ニガソンジッヘジュミョン)  
12. Solo MC  
13. HUSH  
14. LUV  
15. U You  
16. BUBIBU~Lovely Day~Prince~天使じゃない~Mr.Chu (On Stage)  
17. NoNoNo  
18. サマータイム!
19. CRYSTAL
20. Good Morning Baby
21. Yeah
22. Remember
主音唯一码
lgych-00173
文件大小
43.3G
百度网盘下载
提取码
unac
文件解压密码
Apink组合日本第二次巡回演唱会2016【43.3G】1080P蓝光原盘 演唱会视频参数信息
演唱会参数信息

DISC INFO:

Disc Title:     Apink 2nd LIVE TOUR 2016 PINK SUMMER Apink组合日本第二次巡回演唱会2016【43.3G】1080P蓝光原盘
Disc Size:      46,517,350,374 bytes
Protection:     AACS
BD-Java:        No
BDInfo:         0.5.8

PLAYLIST REPORT:

Name:                   00000.MPLS
Length:                 2:03:21.060 (h:m:s.ms)
Size:                   1,274,985,792 bytes
Total Bitrate:          1.38 Mbps

VIDEO:

Codec                   Bitrate             Description     
-----                   -------             -----------     
MPEG-4 AVC Video        32462 kbps          1080i / 29.970 fps / 16:9 / High Profile 4.1

AUDIO:

Codec                           Language        Bitrate         Description     
-----                           --------        -------         -----------     
LPCM Audio                      Japanese        2304 kbps       2.0 / 48 kHz / 2304 kbps / 24-bit

FILES:

Name            Time In         Length          Size            Total Bitrate   
----            -------         ------          ----            -------------   
00000.M2TS      0:00:00.000     1:30:09.404     1,274,985,792   36,409         
00001.M2TS      1:30:09.404     0:32:54.639     0               0               
00002.M2TS      2:03:04.043     0:00:17.017     0               0               

为您推荐 Apink,朴初珑,尹普美,郑恩地,孙娜恩,金南珠,吴夏荣 相关的演唱会视频
主音唯一码
lgych-00173
文件大小
43.3G
百度网盘下载
提取码
unac
文件解压密码
最新天气预报