> DOES乐队<10th Anniversary Live Thanksgiving! in AKASAKA BLIT
歌 手 : DOES乐队
主音唯一码 : lgych-00188
视频大小 : 44.5G主音网微信 : zhuyinwang01
创建时间 : 2018-09-10主音网QQ客服 :2305540263
视频目录 : 日本演唱会
主音网邮箱 :bimuyu#zhuyin.com(请把#改成@)
主音唯一码
lgych-00188
文件大小
44.5G
百度网盘下载
提取码
rvvc
文件解压密码
DOES乐队<10th Anniversary Live Thanksgiving! in AKASAKA BLIT 视频截图










DOES乐队<10th Anniversary Live Thanksgiving! in AKASAKA BLIT 视频剧情截图
DOES乐队<10th Anniversary Live Thanksgiving! in AKASAKA BLIT 演唱会曲目介绍
演唱会曲目介绍: 

1. ステンレス
2. ウォークマン
3. 戯れ男
4. 赤いサンデー
5. バスに乗って
6. ダンス?イン?ザ?ムーンライト
7. ワンダー?デイズ
8. 色恋歌
9. 三月
10. 黒い太陽
11. ユリイカ
12. 夜明け前
13. わすれもの
14. ライカの夢
15. 僕たちの季節
16. S.O.S.O
17. 紅蓮
18. 今を生きる
19. 晴天
20. カリカチュアの夜
21. 刹那
22. ロッカ?ホリデイ
23. ジャック?ナイフ
24. 君の好きな歌
25. ハッピー?エンド
26. 陽はまた昇る
27. ヘイヘイヘイ
28. レイジー?ベイビー
29. 修羅
30. KNOW KNOW KNOW
31. サブタレニアン?ベイビー?ブルース (Encore 1)
32. 世界の果て (Encore 1)
33. ロックンロールが死んで (Encore 1)
34. 曇天 (Encore 2)
35. バクチ?ダンサー (Encore 2)
36. 明日は来るのか (Encore 2)
主音唯一码
lgych-00188
文件大小
44.5G
百度网盘下载
提取码
rvvc
文件解压密码
DOES乐队<10th Anniversary Live Thanksgiving! in AKASAKA BLIT 演唱会视频参数信息
DISC INFO:

Disc Title:    DOES乐队<10th Anniversary Live Thanksgiving! in AKASAKA BLITZ>演唱会【44.5G】1080P蓝光原盘
Disc Size:      47,863,354,836 bytes
Protection:     AACS
BD-Java:        No
BDInfo:         0.5.8

PLAYLIST REPORT:

Name:                   00001.MPLS
Length:                 2:48:05.074 (h:m:s.ms)
Size:                   0 bytes
Total Bitrate:          0.00 Mbps

VIDEO:

Codec                   Bitrate             Description     
-----                   -------             -----------     
MPEG-4 AVC Video        0 kbps              1080p / 23.976 fps / 16:9 / High Profile 4.1

AUDIO:

Codec                           Language        Bitrate         Description     
-----                           --------        -------         -----------     
LPCM Audio                      Japanese        2304 kbps       2.0 / 48 kHz / 2304 kbps / 24-bit

FILES:

Name            Time In         Length          Size            Total Bitrate   
----            -------         ------          ----            -------------   
00002.M2TS      0:00:00.000     1:20:15.811     0               0               
00003.M2TS      1:20:15.811     1:27:41.255     0               0               
00004.M2TS      2:47:57.066     0:00:08.007     0               0               
为您推荐 DOES乐队 相关的演唱会视频
主音唯一码
lgych-00188
文件大小
44.5G
百度网盘下载
提取码
rvvc
文件解压密码
最新天气预报