> 李克勤<你的克勤演奏厅 Hackens Concert Hall Live 2008>香港演
歌 手 : 李克勤,谭咏麟
主音唯一码 : lgych-00190
视频大小 : 46G主音网微信 : zhuyinwang01
创建时间 : 2018-09-10主音网QQ客服 :不在接受qq咨询,有事找微信。说明来意。
视频目录 : 中国香港演唱会
主音网邮箱 :bimuyu#zhuyin.com(请把#改成@)
主音唯一码
lgych-00190
文件大小
46G
百度网盘下载
提取码
2wy3
文件解压密码
李克勤<你的克勤演奏厅 Hackens Concert Hall Live 2008>香港演 视频截图












李克勤<你的克勤演奏厅 Hackens Concert Hall Live 2008>香港演 视频剧情截图
李克勤<你的克勤演奏厅 Hackens Concert Hall Live 2008>香港演 演唱会曲目介绍
演唱会曲目介绍: 

01. 夏日之神话
02. 未成年同盟会
03. 大会堂演奏厅
04. 公主太子
05. 十年前後
06. 飞花
07. 一生不变
08. 岁月风云
09. 大时代
10. 请你早睡早起
11. 世界末日的早上
12. 花落谁家
13. 合久必婚
14. 爱一个人
15. 蓝月亮
16. 大地 (黄贯中合唱)
17. 真的爱你 (黄贯中合唱)
18. 依然相爱 (关淑怡合唱)
19. 天水围城
20. 希望
21. 高妹
22. 天天都是情人节 (新歌)
23. 一个人飞
24. 婚前的女人
25. 情非首尔
26. 旧欢如梦
27. 再见演奏厅
28. 我不会唱歌
29. Medley:
i) Mr Children
ii) 护花使者
iii) 球迷奇遇记
iv) 我着10号
v) 红日
30. 左邻右李 (谭咏麟合唱)
31. 谁可改变 (谭咏麟合唱)
32. 月半小夜曲 (谭咏麟合唱)
33. 小宝宝
34. 好戏之人
35. 佳节
36. Making of
主音唯一码
lgych-00190
文件大小
46G
百度网盘下载
提取码
2wy3
文件解压密码
李克勤<你的克勤演奏厅 Hackens Concert Hall Live 2008>香港演 演唱会视频参数信息
DISC INFO:

Disc Title:     李克勤<你的克勤演奏厅 Hackens Concert Hall Live 2008>香港演唱会【46G】1080P蓝光原盘
Disc Size:      49,480,344,891 bytes
Protection:     AACS
BD-Java:        No
BDInfo:         0.5.8

PLAYLIST REPORT:

Name:                   00001.MPLS
Length:                 2:46:34.985 (h:m:s.ms)
Size:                   0 bytes
Total Bitrate:          0.00 Mbps

VIDEO:

Codec                   Bitrate             Description     
-----                   -------             -----------     
MPEG-4 AVC Video        0 kbps              1080i / 29.970 fps / 16:9 / High Profile 4.1

AUDIO:

Codec                           Language        Bitrate         Description     
-----                           --------        -------         -----------     
LPCM Audio                      Chinese         4608 kbps       5.1 / 48 kHz / 4608 kbps / 16-bit
DTS-HD Master Audio             Chinese         0 kbps          5.1 / 96 kHz / 24-bit (DTS Core: 6.1 / 48 kHz / 1509 kbps / 24-bit)
Dolby Digital Audio             Chinese         384 kbps        5.1 / 48 kHz / 384 kbps / DN -4dB
Dolby Digital Audio             Chinese         192 kbps        2.0 / 48 kHz / 192 kbps / DN -4dB

SUBTITLES:

Codec                           Language        Bitrate         Description     
-----                           --------        -------         -----------     
Presentation Graphics           Chinese         0.000 kbps                      
Presentation Graphics           Chinese         0.000 kbps                      

FILES:

Name            Time In         Length          Size            Total Bitrate   
----            -------         ------          ----            -------------   
00003.M2TS      0:00:00.000     0:57:54.471     0               0               
00004.M2TS      0:57:54.471     0:57:23.440     0               0               
00005.M2TS      1:55:17.911     0:51:17.074     0               0               
为您推荐 李克勤,谭咏麟 相关的演唱会视频
主音唯一码
lgych-00190
文件大小
46G
百度网盘下载
提取码
2wy3
文件解压密码
最新天气预报