> 谭咏麟<银河岁月40载 Alan Tam 40th Anniversary>香港演唱会2015
歌 手 : 谭咏麟,张学友,陈慧娴,李克勤,陈奕迅,陈慧琳
主音唯一码 : lgych-00195
视频大小 : 80G主音网微信 : zhuyinwang01
创建时间 : 2018-09-10主音网QQ客服 :2305540263
视频目录 : 中国香港演唱会
主音网邮箱 :bimuyu#zhuyin.com(请把#改成@)
主音唯一码
lgych-00195
文件大小
80G
百度网盘下载
提取码
pchc
文件解压密码
谭咏麟<银河岁月40载 Alan Tam 40th Anniversary>香港演唱会2015 视频截图




















谭咏麟<银河岁月40载 Alan Tam 40th Anniversary>香港演唱会2015 视频剧情截图
谭咏麟<银河岁月40载 Alan Tam 40th Anniversary>香港演唱会2015 演唱会曲目介绍
演唱会曲目介绍

BD 1 
01. Overture 
02. 银河岁月(Opening) 
03. Spring Breeze 
04. 迟来的春天 
05. 世外桃源 
06. 情两牵 
07. 爱是这样甜 
08. 雨夜的浪漫 
09. 爱的根源 
10. Summertime 
11. 都市恋歌 
12. 情人 
13. 亮了红灯 
14. 曾经 
15. 捕风的汉子 
16. 爱情陷阱 
17. 夏日寒风 
18. 忘不了您 
19. Autumn Feel 
20. 幻影 
21. 最爱的你 
22. 半梦半醒 
23. 此刻你在何处 
24. Warm Winter 
25. Medley – i)墙上的肖像 ii)我没法相信 
26. 凌晨一吻 
27. 变奏 
28. 一个永远不好的伤口 
29. 永不想你 
30. 情凭谁来定错对 
31. Medley - i)一点光ii)点点天地心 
32. 艺海浮台 
33. 珍惜的珍惜 
34. 一生中最爱 
35. 银河岁月 
36. 仍爱着你 

BD 2 
01. 傲骨 
02. 帮我欺骗我 
03. 读爱 
04. Classical Medley I – i)黄昏的声音 ii)再见吧! 浪漫 iii)日落时份 iv)还我真情 
05. 在乎 
06. 再见亦是泪 
07. 朋友(大合唱) 
08. 吻别 
09. 还是你懂得爱我 
10. Classical Medley II – i)情缘巴士站 ii)柔柔河畔 iii)喜爱 iv)恋足100分 
11. 无言感激 
12. 朋友 
13. 谁可改变(陈慧娴) 
14. Medley:爱情陷阱/重口味(谭咏麟+陈奕迅) 
15. 帮我欺骗我(谭咏麟+李克勤) 
16. 爱的逃兵(李克勤) 
17. 谁可改变(谭咏麟+张学友) 
18. 雾之恋(谭咏麟+陈慧琳) 
19. 花花宇宙(陈慧琳) 
20. Sha La La La(温拿乐队) 
21. 千载不变(温拿乐队) 
22. 小苹果(温拿乐队) 
23. 一个永远不好的伤口(谭咏麟+关楚耀) 
24. MAKING OF… (20分钟多) 
主音唯一码
lgych-00195
文件大小
80G
百度网盘下载
提取码
pchc
文件解压密码
谭咏麟<银河岁月40载 Alan Tam 40th Anniversary>香港演唱会2015 演唱会视频参数信息
演唱会参数信息

DISC INFO:

Disc Title:    谭咏麟<银河岁月40载 Alan Tam 40th Anniversary>香港演唱会2015【80G】1080P蓝光原盘.港版双碟
Disc Size:      45,116,115,120 bytes
Protection:     AACS
BD-Java:        No
BDInfo:         0.5.8

PLAYLIST REPORT:

Name:                   00001.MPLS
Length:                 2:21:58.409 (h:m:s.ms)
Size:                   0 bytes
Total Bitrate:          0.00 Mbps

VIDEO:

Codec                   Bitrate             Description     
-----                   -------             -----------     
MPEG-4 AVC Video        0 kbps              1080i / 29.970 fps / 16:9 / High Profile 4.1

AUDIO:

Codec                           Language        Bitrate         Description     
-----                           --------        -------         -----------     
DTS-HD Master Audio             Chinese         0 kbps          5.1 / 96 kHz / 24-bit (DTS Core: 6.1 / 48 kHz / 1509 kbps / 24-bit)
Dolby Digital Audio             Chinese         640 kbps        5.1 / 48 kHz / 640 kbps
LPCM Audio                      Chinese         4608 kbps       2.0 / 96 kHz / 4608 kbps / 24-bit

SUBTITLES:

Codec                           Language        Bitrate         Description     
-----                           --------        -------         -----------     
Presentation Graphics           Chinese         0.000 kbps                      
Presentation Graphics           Chinese         0.000 kbps                      

FILES:

Name            Time In         Length          Size            Total Bitrate   
----            -------         ------          ----            -------------   
00003.M2TS      0:00:00.000     1:03:13.856     0               0               
00004.M2TS      1:03:13.856     1:18:42.551     0               0               
00007.M2TS      2:21:56.407     0:00:02.001     0               0               
为您推荐 谭咏麟,张学友,陈慧娴,李克勤,陈奕迅,陈慧琳 相关的演唱会视频
主音唯一码
lgych-00195
文件大小
80G
百度网盘下载
提取码
pchc
文件解压密码
最新天气预报