> 黄耀明<美丽的呼声听证会 Anthony Wong Red Diffusion Concert>
歌 手 : 黄耀明
主音唯一码 : lgych-00213
视频大小 : 36.3G主音网微信 : zhuyinwang01
创建时间 : 2018-09-10主音网QQ客服 :2305540263
视频目录 : 中国香港演唱会
主音网邮箱 :bimuyu#zhuyin.com(请把#改成@)
主音唯一码
lgych-00213
文件大小
36.3G
百度网盘下载
提取码
puzm
文件解压密码
黄耀明<美丽的呼声听证会 Anthony Wong Red Diffusion Concert> 视频截图














黄耀明<美丽的呼声听证会 Anthony Wong Red Diffusion Concert> 视频剧情截图
黄耀明<美丽的呼声听证会 Anthony Wong Red Diffusion Concert> 演唱会曲目介绍
演唱会参数信息

DISC INFO:

Disc Title:     213 黄耀明<美丽的呼声听证会 Anthony Wong Red Diffusion Concert>香港演唱会2016【36G】1080P蓝光原盘
Disc Size:      39,052,823,602 bytes
Protection:     AACS
BD-Java:        No
BDInfo:         0.5.8

PLAYLIST REPORT:

Name:                   00001.MPLS
Length:                 2:05:59.351 (h:m:s.ms)
Size:                   0 bytes
Total Bitrate:          0.00 Mbps

VIDEO:

Codec                   Bitrate             Description     
-----                   -------             -----------     
MPEG-4 AVC Video        0 kbps              1080i / 29.970 fps / 16:9 / High Profile 4.1

AUDIO:

Codec                           Language        Bitrate         Description     
-----                           --------        -------         -----------     
DTS-HD Master Audio             Chinese         0 kbps          5.1 / 96 kHz / 24-bit (DTS Core: 6.1 / 48 kHz / 1509 kbps / 24-bit)
Dolby Digital Audio             Chinese         640 kbps        5.1 / 48 kHz / 640 kbps
LPCM Audio                      Chinese         4608 kbps       2.0 / 96 kHz / 4608 kbps / 24-bit

SUBTITLES:

Codec                           Language        Bitrate         Description     
-----                           --------        -------         -----------     
Presentation Graphics           Chinese         0.000 kbps                      

FILES:

Name            Time In         Length          Size            Total Bitrate   
----            -------         ------          ----            -------------   
00003.M2TS      0:00:00.000     1:09:07.476     0               0               
00004.M2TS      1:09:07.476     0:56:41.865     0               0               
00008.M2TS      2:05:49.341     0:00:10.009     0               0               
主音唯一码
lgych-00213
文件大小
36.3G
百度网盘下载
提取码
puzm
文件解压密码
黄耀明<美丽的呼声听证会 Anthony Wong Red Diffusion Concert> 演唱会视频参数信息
演唱会曲目介绍

1.贺年烟花 
2.浮生六劫 
3.戏剧人生 
4.今日死真D (i) Feat.游学修 
5.找不着借口/今日死真D (ii) Feat.游学修 
6.大地恩情 
7.换到千般恨 
8.今日死真D (iii) Feat.游学修 
9.变色龙 
10.残梦 
11.人在旅途洒泪时 
12.骤雨中的阳光 
13.IQ成熟时 
14.百万富翁 Feat.柳俊江 
15.大丈夫 
16.鳄鱼泪 
17.人在江湖 
18.龙门阵 Feat. 林夕x黄伟文x于逸尧 
19.电视人 
20.星仔走天涯 
21.天蚕变 
22.浴血太平山 
23.大内群英 
24.American Pie 
25.追族 
26.彩云深处 
27.巨星 
28.问我
为您推荐 黄耀明 相关的演唱会视频
主音唯一码
lgych-00213
文件大小
36.3G
百度网盘下载
提取码
puzm
文件解压密码
最新天气预报