> 林志美<Timeless Samantha's Live 2015>香港音乐会演唱会【44.4G
歌 手 : 林志美
主音唯一码 : lgych-00219
视频大小 : 44.4G主音网微信 : zhuyinwang01
创建时间 : 2018-09-10主音网QQ客服 :不在接受qq咨询,有事找微信。说明来意。
视频目录 : 中国香港演唱会
主音网邮箱 :bimuyu#zhuyin.com(请把#改成@)
主音唯一码
lgych-00219
文件大小
44.4G
百度网盘下载
提取码
34vb
文件解压密码
林志美<Timeless Samantha's Live 2015>香港音乐会演唱会【44.4G 视频截图












林志美<Timeless Samantha's Live 2015>香港音乐会演唱会【44.4G 视频剧情截图
林志美<Timeless Samantha's Live 2015>香港音乐会演唱会【44.4G 演唱会曲目介绍
演唱会参数信息

DISC INFO:

Disc Title:     219 林志美香港音乐会演唱会【44.4G】1080P蓝光原盘
Disc Size:      47,760,002,251 bytes
Protection:     AACS
BD-Java:        No
BDInfo:         0.5.8

PLAYLIST REPORT:

Name:                   00002.MPLS
Length:                 0:00:39.039 (h:m:s.ms)
Size:                   0 bytes
Total Bitrate:          0.00 Mbps

VIDEO:

Codec                   Bitrate             Description     
-----                   -------             -----------     
MPEG-4 AVC Video        0 kbps              1080i / 29.970 fps / 16:9 / High Profile 4.1

AUDIO:

Codec                           Language        Bitrate         Description     
-----                           --------        -------         -----------     
Dolby Digital Audio             Chinese         384 kbps        2.0 / 48 kHz / 384 kbps / DN -4dB

FILES:

Name            Time In         Length          Size            Total Bitrate   
----            -------         ------          ----            -------------   
00004.M2TS      0:00:00.000     0:00:19.019     0               0               
00005.M2TS      0:00:19.019     0:00:11.011     0               0               
00006.M2TS      0:00:30.030     0:00:09.009     0               0               
主音唯一码
lgych-00219
文件大小
44.4G
百度网盘下载
提取码
34vb
文件解压密码
林志美<Timeless Samantha's Live 2015>香港音乐会演唱会【44.4G 演唱会视频参数信息
演唱会曲目介绍

01. Don't Know Why 
02. 爱是不保留 
03. 感情的段落 
04. 风筝 
05. 雨夜钢琴 
06. 永远冬天 
07. 我们开心 
08. 爱不完 
09. 爱自己 
10. 幸福摩天轮 
11. 欢乐今宵 
12. 新宿物语 (合唱: 冯允谦) 
13. When You Say Nothing At All (主唱:冯允谦) 
14. Medley:风继续吹 / 深爱着你 
15. 一生不变 
16. 我的歌声里 
17. 情人路 
18. 甚么是缘份 
19. 快歌medley:爱情幻像 / 月影 / 初恋 
20. 因我爱你 (主唱:C AllStar) 
21. 爱的火花 (合唱:C AllStar) 
22. 你的眼神 
23. 偶遇 
24. You Raise Me Up 
25. 爱是不保留
为您推荐 林志美 相关的演唱会视频
主音唯一码
lgych-00219
文件大小
44.4G
百度网盘下载
提取码
34vb
文件解压密码
最新天气预报