> A Pink组合<Apink 1st LIVE TOUR 2015 PINK SEASON>日本巡回演唱
歌 手 : Apink,朴初珑,尹普美,郑恩地,孙娜恩,金南珠,吴夏荣
主音唯一码 : lgych-00229
视频大小 : 37.2G主音网微信 : zhuyinwang01
创建时间 : 2018-09-10主音网QQ客服 :2305540263
视频目录 : 韩国演唱会
主音网邮箱 :bimuyu#zhuyin.com(请把#改成@)
主音唯一码
lgych-00229
文件大小
37.2G
百度网盘下载
提取码
ckne
文件解压密码
A Pink组合<Apink 1st LIVE TOUR 2015 PINK SEASON>日本巡回演唱 视频截图
















A Pink组合<Apink 1st LIVE TOUR 2015 PINK SEASON>日本巡回演唱 视频剧情截图
A Pink组合<Apink 1st LIVE TOUR 2015 PINK SEASON>日本巡回演唱 演唱会曲目介绍
演唱会参数信息

DISC INFO:

Disc Title:     229 A Pink组合日本巡回演唱会【37.2G】1080P蓝光原盘
Disc Size:      39,990,822,424 bytes
Protection:     AACS
BD-Java:        No
BDInfo:         0.5.8

PLAYLIST REPORT:

Name:                   00000.MPLS
Length:                 1:46:11.698 (h:m:s.ms)
Size:                   0 bytes
Total Bitrate:          0.00 Mbps

VIDEO:

Codec                   Bitrate             Description     
-----                   -------             -----------     
MPEG-4 AVC Video        0 kbps              1080i / 29.970 fps / 16:9 / High Profile 4.1

AUDIO:

Codec                           Language        Bitrate         Description     
-----                           --------        -------         -----------     
LPCM Audio                      Japanese        4608 kbps       2.0 / 96 kHz / 4608 kbps / 24-bit

FILES:

Name            Time In         Length          Size            Total Bitrate   
----            -------         ------          ----            -------------   
00000.M2TS      0:00:00.000     0:55:53.350     0               0               
00001.M2TS      0:55:53.350     0:50:01.031     0               0               
00004.M2TS      1:45:54.381     0:00:08.308     0               0               
00005.M2TS      1:46:02.689     0:00:09.009     0               0               
主音唯一码
lgych-00229
文件大小
37.2G
百度网盘下载
提取码
ckne
文件解压密码
A Pink组合<Apink 1st LIVE TOUR 2015 PINK SEASON>日本巡回演唱 演唱会视频参数信息
演唱会曲目介绍

曲目リスト
1. Opening
2. Remember
3. Good Morning Baby
4. NoNoNo
5. 魅かれる(クルリョ)
6. MyMy
7. LUV
8. 不思議だね(シンギハジョ)~小指(セキソンカラック)
9. SUNDAY MONDAY
10. Secret
11. 猫(コヤンイ)
12. Boo~I Got You
13. Run To You
14. 天使じゃない
15. BUBIBU
16. HUSH
17. I DO
18. U You
19. YEAH
20. 空高く(ハヌルノッピ)
21. モルラヨ
22. Mr.Chu (On Stage)
23. 4月19日
为您推荐 Apink,朴初珑,尹普美,郑恩地,孙娜恩,金南珠,吴夏荣 相关的演唱会视频
主音唯一码
lgych-00229
文件大小
37.2G
百度网盘下载
提取码
ckne
文件解压密码
最新天气预报