> 王菀之<Ivana Wong Fragrance Of Music 2015>作品赏音乐会演唱会
歌 手 : 王菀之
主音唯一码 : lgych-00237
视频大小 : 38.4G主音网微信 : zhuyinwang01
创建时间 : 2018-09-10主音网QQ客服 :不在接受qq咨询,有事找微信。说明来意。
视频目录 : 中国香港演唱会
主音网邮箱 :bimuyu#zhuyin.com(请把#改成@)
主音唯一码
lgych-00237
文件大小
38.4G
百度网盘下载
提取码
emh6
文件解压密码
王菀之<Ivana Wong Fragrance Of Music 2015>作品赏音乐会演唱会 视频截图


















王菀之<Ivana Wong Fragrance Of Music 2015>作品赏音乐会演唱会 视频剧情截图
王菀之<Ivana Wong Fragrance Of Music 2015>作品赏音乐会演唱会 演唱会曲目介绍
演唱会参数信息

DISC INFO:

Disc Title:     237 王菀之 Ivana Wong Fragrance Of Music 2015 作品赏音乐会演唱会【38.4G】1080P蓝光原盘
Disc Size:      41,338,208,629 bytes
Protection:     AACS
BD-Java:        No
BDInfo:         0.5.8

PLAYLIST REPORT:

Name:                   00001.MPLS
Length:                 2:11:15.033 (h:m:s.ms)
Size:                   0 bytes
Total Bitrate:          0.00 Mbps

VIDEO:

Codec                   Bitrate             Description     
-----                   -------             -----------     
MPEG-4 AVC Video        0 kbps              1080i / 29.970 fps / 16:9 / High Profile 4.1

AUDIO:

Codec                           Language        Bitrate         Description     
-----                           --------        -------         -----------     
DTS-HD Master Audio             Chinese         0 kbps          5.1 / 96 kHz / 24-bit (DTS Core: 6.1 / 48 kHz / 1509 kbps / 24-bit)
Dolby Digital Audio             Chinese         640 kbps        5.1 / 48 kHz / 640 kbps
LPCM Audio                      Chinese         4608 kbps       2.0 / 96 kHz / 4608 kbps / 24-bit

SUBTITLES:

Codec                           Language        Bitrate         Description     
-----                           --------        -------         -----------     
Presentation Graphics           Chinese         0.000 kbps                      

FILES:

Name            Time In         Length          Size            Total Bitrate   
----            -------         ------          ----            -------------   
00003.M2TS      0:00:00.000     0:58:24.501     0               0               
00004.M2TS      0:58:24.501     1:12:40.522     0               0               
00005.M2TS      2:11:05.023     0:00:10.009     0               0               
主音唯一码
lgych-00237
文件大小
38.4G
百度网盘下载
提取码
emh6
文件解压密码
王菀之<Ivana Wong Fragrance Of Music 2015>作品赏音乐会演唱会 演唱会视频参数信息
演唱会曲目介绍

Bottle of Light 
01. Overture 
02. 末日 
03. 多得你梦 
04. 哥歌 
05. Reprise 

Bottle of Hope 
06. 融了钟的时间 
07. 柳暗花明 
08. (巴黎没有)摩天轮 
09. 原来如此 

Bottle of Life 
10. 诗情 
11. 我来自火星 
12. 低科技之歌/粒糖有毒 
13. 下次爱你 

Bottle of The Fallen 
14. 开笼雀 
15. 迷失艺术 
16. 最好的/ Where's My Teddy 
17. White 
18. 我们他们 

Bottle of Faith 
19. Verdi: Requiem, Dies Irae 
20. 天堂有路 
21. 小侠 
22. 安妮。法兰克 

Encore Songs 
23. 水百合 
24. 小团圆 
25. The Lord's Prayer
为您推荐 王菀之 相关的演唱会视频
主音唯一码
lgych-00237
文件大小
38.4G
百度网盘下载
提取码
emh6
文件解压密码
最新天气预报