> 侧田<WeTouch Live 2015>世界巡回演唱会香港演唱会【42.5G】1080
歌 手 : 侧田
主音唯一码 : lgych-00249
视频大小 : 42.5G主音网微信 : zhuyinwang01
创建时间 : 2018-09-10主音网QQ客服 :2305540263
视频目录 : 中国香港演唱会
主音网邮箱 :bimuyu#zhuyin.com(请把#改成@)
主音唯一码
lgych-00249
文件大小
42.5G
百度网盘下载
提取码
ekdr
文件解压密码
侧田<WeTouch Live 2015>世界巡回演唱会香港演唱会【42.5G】1080 视频截图


















侧田<WeTouch Live 2015>世界巡回演唱会香港演唱会【42.5G】1080 视频剧情截图
侧田<WeTouch Live 2015>世界巡回演唱会香港演唱会【42.5G】1080 演唱会曲目介绍
演唱会曲目介绍: 

01. 歌成就今天这个我
02. Kong
03. 情歌
04. 好人
05. Three Two One
06. Erica
07. WeTouch
08. 两个女人
09. 一粒糖
10. Make You Feel My Love
11. 我不好爱
12. I Miss Love
13. B.O.K
14. 爽
15. 想你的夜
16. Volar
17. 决战二世祖
18. 未输
19. 三十日
20. 很想很想说再见
21. 男人KTV
22. 我有今日
23. 情永落
24. 运
25. 命硬
26. 红地毡
主音唯一码
lgych-00249
文件大小
42.5G
百度网盘下载
提取码
ekdr
文件解压密码
侧田<WeTouch Live 2015>世界巡回演唱会香港演唱会【42.5G】1080 演唱会视频参数信息
演唱会参数信息

DISC INFO:

Disc Title:     249 侧田 WeTouch Live 2015 世界巡回演唱会香港演唱会【42.5G】1080P蓝光原盘
Disc Size:      45,726,285,831 bytes
Protection:     AACS
BD-Java:        No
BDInfo:         0.5.8

PLAYLIST REPORT:

Name:                   00001.MPLS
Length:                 2:27:34.145 (h:m:s.ms)
Size:                   0 bytes
Total Bitrate:          0.00 Mbps

VIDEO:

Codec                   Bitrate             Description     
-----                   -------             -----------     
MPEG-4 AVC Video        0 kbps              1080i / 29.970 fps / 16:9 / High Profile 4.1

AUDIO:

Codec                           Language        Bitrate         Description     
-----                           --------        -------         -----------     
DTS-HD Master Audio             Chinese         0 kbps          5.1 / 96 kHz / 24-bit (DTS Core: 6.1 / 48 kHz / 1509 kbps / 24-bit)
Dolby Digital Audio             Chinese         640 kbps        5.1 / 48 kHz / 640 kbps
LPCM Audio                      Chinese         4608 kbps       2.0 / 96 kHz / 4608 kbps / 24-bit
Dolby Digital Audio             Chinese         384 kbps        2.0 / 48 kHz / 384 kbps

SUBTITLES:

Codec                           Language        Bitrate         Description     
-----                           --------        -------         -----------     
Presentation Graphics           Chinese         0.000 kbps                      

FILES:

Name            Time In         Length          Size            Total Bitrate   
----            -------         ------          ----            -------------   
00003.M2TS      0:00:00.000     1:18:20.495     0               0               
00004.M2TS      1:18:20.495     1:09:05.641     0               0               
00008.M2TS      2:27:26.137     0:00:08.008     0               0               
为您推荐 侧田 相关的演唱会视频
主音唯一码
lgych-00249
文件大小
42.5G
百度网盘下载
提取码
ekdr
文件解压密码
最新天气预报