> 周柏豪<Pakho Chau Colors Of Life Concert>香港红馆演唱会2014
歌 手 : 周柏豪,容祖儿,杨千嬅
主音唯一码 : lgych-00250
视频大小 : 41.3G主音网微信 : zhuyinwang01
创建时间 : 2018-09-10主音网QQ客服 :不在接受qq咨询,有事找微信。说明来意。
视频目录 : 中国香港演唱会
主音网邮箱 :bimuyu#zhuyin.com(请把#改成@)
主音唯一码
lgych-00250
文件大小
41.3G
百度网盘下载
提取码
dvhg
文件解压密码
周柏豪<Pakho Chau Colors Of Life Concert>香港红馆演唱会2014 视频截图


















周柏豪<Pakho Chau Colors Of Life Concert>香港红馆演唱会2014 视频剧情截图
周柏豪<Pakho Chau Colors Of Life Concert>香港红馆演唱会2014 演唱会曲目介绍
演唱会曲目介绍: 

01. Prologue
02. 异能
03. 摔角
04. 歹角
05. 报告总司令
06. Imperfect
07. 后援
08. 天光 w/ Extended Outro
09. 00:07:00 Interlude
10. 00:08:00
11. 黑
12. Medley : 现在已夜深 / 六天 / Smiley Face
13. 我的宣言
14. 我不要被你记住
15. 传闻
16. 无力挽回
17. 宏愿
18. Overture
19. 今天应该很快乐
20. 只有一事不成全你
21. 同行
22. 金
23. 起跳
24. 同天空
25. Keep Going Overture
26. 自由意志
27. 够钟
28. 一事无成 feat. Celine
29. 到此为止
30. 傻小子
31. 最好不过
Bonus Track
32. 天窗 with 容祖儿
33. 滚 with 杨千嬅
34. Colors of Life - Making Of
主音唯一码
lgych-00250
文件大小
41.3G
百度网盘下载
提取码
dvhg
文件解压密码
周柏豪<Pakho Chau Colors Of Life Concert>香港红馆演唱会2014 演唱会视频参数信息
演唱会参数信息

DISC INFO:

Disc Title:     250 周柏豪 Pakho Chau Colors Of Life Concert 香港红馆演唱会2014【41.3G】1080P蓝光原盘
Disc Size:      44,351,446,104 bytes
Protection:     AACS
BD-Java:        No
BDInfo:         0.5.8

PLAYLIST REPORT:

Name:                   00001.MPLS
Length:                 2:47:30.707 (h:m:s.ms)
Size:                   0 bytes
Total Bitrate:          0.00 Mbps

VIDEO:

Codec                   Bitrate             Description     
-----                   -------             -----------     
MPEG-4 AVC Video        0 kbps              1080i / 29.970 fps / 16:9 / High Profile 4.1

AUDIO:

Codec                           Language        Bitrate         Description     
-----                           --------        -------         -----------     
DTS-HD Master Audio             Chinese         0 kbps          5.1 / 96 kHz / 24-bit (DTS Core: 6.1 / 48 kHz / 1509 kbps / 24-bit)
Dolby Digital Audio             Chinese         640 kbps        5.1 / 48 kHz / 640 kbps
LPCM Audio                      Chinese         4608 kbps       2.0 / 96 kHz / 4608 kbps / 24-bit

SUBTITLES:

Codec                           Language        Bitrate         Description     
-----                           --------        -------         -----------     
Presentation Graphics           Chinese         0.000 kbps                      

FILES:

Name            Time In         Length          Size            Total Bitrate   
----            -------         ------          ----            -------------   
00003.M2TS      0:00:00.000     1:22:40.488     0               0               
00004.M2TS      1:22:40.488     1:00:00.196     0               0               
00005.M2TS      2:22:40.685     0:03:46.426     0               0               
00006.M2TS      2:26:27.111     0:04:14.053     0               0               
00007.M2TS      2:30:41.165     0:16:32.524     0               0               
00009.M2TS      2:47:13.690     0:00:17.017     0               0               
为您推荐 周柏豪,容祖儿,杨千嬅 相关的演唱会视频
主音唯一码
lgych-00250
文件大小
41.3G
百度网盘下载
提取码
dvhg
文件解压密码
最新天气预报