> SHINee<SHINee World 2016 DxDxD Special Edition In Tokyo>日本
歌 手 : SHINee,李珍基,金钟铉,金基范,崔珉豪,李泰民
主音唯一码 : lgych-00262
视频大小 : 63.3G主音网微信 : zhuyinwang01
创建时间 : 2018-09-10主音网QQ客服 :2305540263
视频目录 : 韩国演唱会
主音网邮箱 :bimuyu#zhuyin.com(请把#改成@)
主音唯一码
lgych-00262
文件大小
63.3G
百度网盘下载
提取码
e313
文件解压密码
SHINee<SHINee World 2016 DxDxD Special Edition In Tokyo>日本 视频截图






























SHINee<SHINee World 2016 DxDxD Special Edition In Tokyo>日本 视频剧情截图
SHINee<SHINee World 2016 DxDxD Special Edition In Tokyo>日本 演唱会曲目介绍
演唱会曲目介绍: 

<D1>

~ MOVIE 1~ OPENING
Breaking News
D×D×D
~ MC ~
Note+Clue+Sherlock
Stranger
Everybody
~ MOVIE 2 ~
Wishful Thinking
Married To The Music
View
JoJo
Your Number
~ MOVIE 3 ~
Sweet Surprise
Keeping love again
Moon Drop
Love
~ 3 2 1 DIGEST VTR ~
Lookbook (KEY)
Crazy (JONGHYUN)
キセキ (MINHO)
Nessun Doma (ONEW)
Press It Medley (TAEMIN)
~ MOVIE 4 ~
BOYS WILL BE BOYS
~ MC ~
Replay -君は僕のeverything-
Photograph
3 2 1
Dazzling Girl
~ BAND SESSSION ~
WANTED
Lucifer
Burning Up!
Picasso

<D2>

[ Encore ]
Downtown Baby
Good Good Feeling
~ MC ~
君のせいで
~ MC ~
Sing Your Song
特典映像「SHINee WORLD 2016~D×D×D~ TOUR Sketch」
主音唯一码
lgych-00262
文件大小
63.3G
百度网盘下载
提取码
e313
文件解压密码
SHINee<SHINee World 2016 DxDxD Special Edition In Tokyo>日本 演唱会视频参数信息
演唱会参数信息

DISC INFO:

Disc Title:     lgych-00262 SHINee SHINee World 2016 DxDxD Special Edition In Tokyo 日本东京演唱会【63.3G】1080P蓝光原盘
Disc Size:      44,977,665,073 bytes
Protection:     AACS
BD-Java:        No
BDInfo:         0.5.8

PLAYLIST REPORT:

Name:                   00001.MPLS
Length:                 2:45:43.934 (h:m:s.ms)
Size:                   0 bytes
Total Bitrate:          0.00 Mbps

VIDEO:

Codec                   Bitrate             Description     
-----                   -------             -----------     
MPEG-4 AVC Video        0 kbps              1080i / 29.970 fps / 16:9 / High Profile 4.1

AUDIO:

Codec                           Language        Bitrate         Description     
-----                           --------        -------         -----------     
LPCM Audio                      Japanese        2304 kbps       2.0 / 48 kHz / 2304 kbps / 24-bit
DTS-HD Master Audio             Japanese        0 kbps          5.1 / 48 kHz / 24-bit (DTS Core: 5.1 / 48 kHz / 1509 kbps / 24-bit)

FILES:

Name            Time In         Length          Size            Total Bitrate   
----            -------         ------          ----            -------------   
00002.M2TS      0:00:00.000     1:47:01.415     0               0               
00003.M2TS      1:47:01.415     0:58:39.516     0               0               
00007.M2TS      2:45:40.931     0:00:03.003     0               0               
为您推荐 SHINee,李珍基,金钟铉,金基范,崔珉豪,李泰民 相关的演唱会视频
主音唯一码
lgych-00262
文件大小
63.3G
百度网盘下载
提取码
e313
文件解压密码
最新天气预报