> 中岛美嘉<Concert Tour 2007 Yes My Joy>日本巡迴演唱会2007【42
歌 手 : 中岛美嘉,Mika Nakashima
主音唯一码 : lgych-00264
视频大小 : 42.7G主音网微信 : zhuyinwang01
创建时间 : 2018-09-10主音网QQ客服 :不在接受qq咨询,有事找微信。说明来意。
视频目录 : 日本演唱会
主音网邮箱 :bimuyu#zhuyin.com(请把#改成@)
主音唯一码
lgych-00264
文件大小
42.7G
百度网盘下载
提取码
fgga
文件解压密码
中岛美嘉<Concert Tour 2007 Yes My Joy>日本巡迴演唱会2007【42 视频截图
































中岛美嘉<Concert Tour 2007 Yes My Joy>日本巡迴演唱会2007【42 视频剧情截图
中岛美嘉<Concert Tour 2007 Yes My Joy>日本巡迴演唱会2007【42 演唱会曲目介绍
演唱会曲目介绍: 

01. A MIRACLE FOR YOU
02. STARS~WILL~愛してる
03. MY SUGAR CAT
04. ALL HANDS TOGETHER
05. DANCE WITH THE DEVIL
06. BLACK & BLUE
07. CRY NO MORE
08. I LOVE YOU
09. 素直なまま
10. 汚れた花
11. 桜色舞うころ
12. ひとり(single version)
13. GLAMOROUS SKY~一色
14. ROCKING HORSE
15. ONE SURVIVE
16. 見えない星
17. FIND THE WAY
18. 雪の華 雪之花
19. JOY
20. LIFE
21. IT'S TOO LATE
22. WHAT A WONDERFUL WORLD
23. I believe
24. LAST WALTZ(endroll)
主音唯一码
lgych-00264
文件大小
42.7G
百度网盘下载
提取码
fgga
文件解压密码
中岛美嘉<Concert Tour 2007 Yes My Joy>日本巡迴演唱会2007【42 演唱会视频参数信息
演唱会参数信息

DISC INFO:

Disc Title:     lgych-00264 中岛美嘉 Concert Tour 2007 Yes My Joy 日本巡迴演唱会2007【42.7G】1080P蓝光原盘
Disc Size:      45,902,453,893 bytes
Protection:     AACS
BD-Java:        No
BDInfo:         0.5.8

PLAYLIST REPORT:

Name:                   00001.MPLS
Length:                 2:24:00.565 (h:m:s.ms)
Size:                   0 bytes
Total Bitrate:          0.00 Mbps

VIDEO:

Codec                   Bitrate             Description     
-----                   -------             -----------     
MPEG-2 Video            0 kbps              1080i / 29.970 fps / 16:9

AUDIO:

Codec                           Language        Bitrate         Description     
-----                           --------        -------         -----------     
LPCM Audio                      Japanese        1536 kbps       2.0 / 48 kHz / 1536 kbps / 16-bit

FILES:

Name            Time In         Length          Size            Total Bitrate   
----            -------         ------          ----            -------------   
00002.M2TS      0:00:00.000     1:05:55.952     0               0               
00003.M2TS      1:05:55.952     1:17:57.673     0               0               
00004.M2TS      2:23:53.625     0:00:06.940     0               0               
为您推荐 中岛美嘉,Mika Nakashima 相关的演唱会视频
主音唯一码
lgych-00264
文件大小
42.7G
百度网盘下载
提取码
fgga
文件解压密码
最新天气预报