> 大冢爱<Ai Otsuka Love Fantastic 专辑>精选MV+LIVE合集2014【14
歌 手 : 大冢爱
主音唯一码 : lgych-00271
视频大小 : 14.5G主音网微信 : zhuyinwang01
创建时间 : 2018-09-10主音网QQ客服 :不在接受qq咨询,有事找微信。说明来意。
视频目录 : 日本演唱会
主音网邮箱 :bimuyu#zhuyin.com(请把#改成@)
主音唯一码
lgych-00271
文件大小
14.5G
百度网盘下载
提取码
s3nn
文件解压密码
大冢爱<Ai Otsuka Love Fantastic 专辑>精选MV+LIVE合集2014【14 视频截图






















大冢爱<Ai Otsuka Love Fantastic 专辑>精选MV+LIVE合集2014【14 视频剧情截图
大冢爱<Ai Otsuka Love Fantastic 专辑>精选MV+LIVE合集2014【14 演唱会曲目介绍
演唱会曲目介绍:

-MUSIC CLIPS-

1. LOVE FANTASTIC
2. モアモア
3. LUCKY☆STAR
4. ゾッ婚ディション
5. I ? ×××
6. Re:NAME

-特典映像-

7. キミにカエル。 (from AIO PIANO vol.1 at オーチャードホール 2013.12.25 LIVE映像) 
8. 5:09a.m (from AIO PIANO vol.1 at オーチャードホール 2013.12.25 LIVE映像)
9. Is (from AIO PIANO vol.1 at オーチャードホール 2013.12.25 LIVE映像) 
10. プラネタリウム (from AIO PIANO vol.1 at オーチャードホール 2013.12.25 LIVE映像)
11. 甘えんぼ (from AIO PIANO vol.1 at オーチャードホール 2013.12.25 LIVE映像)
主音唯一码
lgych-00271
文件大小
14.5G
百度网盘下载
提取码
s3nn
文件解压密码
大冢爱<Ai Otsuka Love Fantastic 专辑>精选MV+LIVE合集2014【14 演唱会视频参数信息
演唱会参数信息

DISC INFO:

Disc Title:     lgych-00271 大冢爱 Ai Otsuka Love Fantastic 专辑 精选MV+LIVE合集2014【14.5G】1080P蓝光原盘
Disc Size:      15,671,880,848 bytes
Protection:     AACS
BD-Java:        No
BDInfo:         0.5.8

PLAYLIST REPORT:

Name:                   00001.MPLS
Length:                 0:28:51.229 (h:m:s.ms)
Size:                   0 bytes
Total Bitrate:          0.00 Mbps

VIDEO:

Codec                   Bitrate             Description     
-----                   -------             -----------     
MPEG-4 AVC Video        0 kbps              1080i / 29.970 fps / 16:9 / High Profile 4.1

AUDIO:

Codec                           Language        Bitrate         Description     
-----                           --------        -------         -----------     
LPCM Audio                      Japanese        1536 kbps       2.0 / 48 kHz / 1536 kbps / 16-bit

FILES:

Name            Time In         Length          Size            Total Bitrate   
----            -------         ------          ----            -------------   
00001.M2TS      0:00:00.000     0:04:34.274     0               0               
00002.M2TS      0:04:34.274     0:05:21.320     0               0               
00003.M2TS      0:09:55.595     0:04:30.270     0               0               
00004.M2TS      0:14:25.865     0:04:14.253     0               0               
00005.M2TS      0:18:40.119     0:05:15.815     0               0               
00006.M2TS      0:23:55.934     0:04:55.295     0               0               
为您推荐 大冢爱 相关的演唱会视频
主音唯一码
lgych-00271
文件大小
14.5G
百度网盘下载
提取码
s3nn
文件解压密码
最新天气预报