> 早安家族<Hello!Project - Petit Best 14>MV精选合集2014【22.9G
歌 手 : 早安家族,田中丽奈,高桥爱,嗣永桃子,久住小春,前田彩里
主音唯一码 : lgych-00273
视频大小 : 22.9G主音网微信 : zhuyinwang01
创建时间 : 2018-09-10主音网QQ客服 :不在接受qq咨询,有事找微信。说明来意。
视频目录 : 日本演唱会
主音网邮箱 :bimuyu#zhuyin.com(请把#改成@)
主音唯一码
lgych-00273
文件大小
22.9G
百度网盘下载
提取码
ba3n
文件解压密码
早安家族<Hello!Project - Petit Best 14>MV精选合集2014【22.9G 视频截图
































早安家族<Hello!Project - Petit Best 14>MV精选合集2014【22.9G 视频剧情截图
早安家族<Hello!Project - Petit Best 14>MV精选合集2014【22.9G 演唱会曲目介绍
演唱会曲目介绍: 

01. Help me! ! /モーニング娘。
02. わがまま 気のまま 愛のジョーク/モーニング娘。
03. アジアン セレブレイション/Berryz工房
04. ゴールデン チャイナタウン/Berryz工房
05. Crazy 完全な大人/℃-ute
06. アダムとイブのジレンマ/℃-ute
07. 旅立ちの春が来た/スマイレージ
08. ヤッタルチャン/スマイレージ
09. ロマンスの途中/Juice=Juice
10. Rockの定義/田中れいな(モーニング娘。)
11. NEXT MY SELF/真野恵里菜
12. キャベツ白書~春編~/ピーベリー
13. ほたる祭りの日/ジュリン
14. レディーマーメイド/ダイヤレディー
15. エイヤサ! ブラザー/メロウクアッド
16. 海岸清掃男子/HI-FIN

特典映像

01.この街 (みんなのこの街Ver.) ℃-ute
02.雨 (White Room Ver.) 矢島舞美(℃-ute)
主音唯一码
lgych-00273
文件大小
22.9G
百度网盘下载
提取码
ba3n
文件解压密码
早安家族<Hello!Project - Petit Best 14>MV精选合集2014【22.9G 演唱会视频参数信息
演唱会参数信息

DISC INFO:

Disc Title:     lgych-00273 早安家族 Hello!Project - Petit Best 14 MV精选合集2014【22.9G】1080P蓝光原盘
Disc Size:      24,667,100,396 bytes
Protection:     AACS
BD-Java:        No
BDInfo:         0.5.8

PLAYLIST REPORT:

Name:                   00000.MPLS
Length:                 1:15:03.665 (h:m:s.ms)
Size:                   0 bytes
Total Bitrate:          0.00 Mbps

VIDEO:

Codec                   Bitrate             Description     
-----                   -------             -----------     
MPEG-4 AVC Video        0 kbps              1080i / 29.970 fps / 16:9 / High Profile 4.1

AUDIO:

Codec                           Language        Bitrate         Description     
-----                           --------        -------         -----------     
LPCM Audio                      Japanese        1536 kbps       2.0 / 48 kHz / 1536 kbps / 16-bit

FILES:

Name            Time In         Length          Size            Total Bitrate   
----            -------         ------          ----            -------------   
00003.M2TS      0:00:00.000     0:04:44.984     0               0               
00005.M2TS      0:04:44.984     0:04:20.260     0               0               
00007.M2TS      0:09:05.244     0:04:53.292     0               0               
为您推荐 早安家族,田中丽奈,高桥爱,嗣永桃子,久住小春,前田彩里 相关的演唱会视频
主音唯一码
lgych-00273
文件大小
22.9G
百度网盘下载
提取码
ba3n
文件解压密码
最新天气预报